Гримм / Grimm (сезон 1-2, серии 1-44(44)) [2011-2013, WEB-DLRip-AVC 720p] l LostFilm EXT

Отечественные и зарубежные сериалы
 Статистика раздачи 
Размер: 43.18 ГБ   |  Зарегистрирован: Сентябрь 17, 2013, 9:19 pm   |   .torrent скачан: 17 раз
Сидеров: 24  [ 0 байт/сек ]   Личеров: 6  [ 0 байт/сек ]  

Гримм / Grimm (сезон 1-2, серии 1-44(44)) [2011-2013, WEB-DLRip-AVC 720p] l LostFilm EXT

Сообщение Denny » Сентябрь 17, 2013, 9:27 pm



Год выпуска: 2011-2013
Выпущено: США
Продолжительность: 00:42:00
Сезон: 1-2
Серия: 1-44
Количество серий в сезоне:44
Озвучка:Профессиональный многоголосый закадровый(LostFilm)
Субтитры: Нет

Режиссер: Марк Баклэнд

В ролях: Гвинтоли, Расселл Хорнсби, Битси Таллоч, Сайлас Уэйр Митчелл, Саша Ройз, Регги Ли, Клэр Коффи, Айанна Беркшир, Кейт Бёртон, Тим Бэгли и др.

Описание:
Молодой детектив Ник Бёркхардт является наследником рода Гримм - охотников за нечистью, живущей в мире людей.

Все потомки Гриммов обладают ключевой способностью - они могут видеть истинную сущность злых тварей, под какой бы личиной они не скрывались.

Соратником Ника становится перевоспитавшийся "Потрошитель" - оборотень Эдди Монро, помогающий ему познавать таинства древней мифологии.

Технические данные:
1 Сезон
Качество : WEB-DLRip-AVC 720p
Формат: MPEG-4
Видео кодек: H264
Видео: 2486Кбит/сек,1280х720(16.9),в 23.970кадр/сек,AVC(Baseline@L3.1)(1Ref Frames)
Аудио кодек: AAC
Аудио: Russian Dolby Digital 5.1:447Кбит/сек,44.1КГц,6каналов,AAC,(Version4)(LC)
2 Сезон
Качество : WEB-DLRip-AVC 720p
Формат: MPEG-4
Видео кодек: H264
Видео: 3105Кбит/сек,1280х720(16.9),в 25.000кадр/сек,AVC(Baseline@L3.1)(1Ref Frames)
Аудио кодек: AAC
Аудио Russian Dolby Digital 5.1:454Кбит/сек,44.1КГц,6каналов,AAC,(Version4)(LC)

Дополнительная информация:
Звуковая дорожка сделана путем наложения чистого голоса озвучивателей на центральный канал оригинальной дорожки. Качество идентично звуковой дорожке.

General
Формат : MPEG-4
Профиль формата : Base Media
Идентификатор кодека : isom
Размер файла : 910 MiB
Продолжительность : 43mn 20s
Режим общего битрейта : Variable
Общий поток : 2 937 Kbps
Дата кодирования : UTC 2011-11-16 15:40:33
Дата пометки : UTC 2011-11-16 15:40:33
Программа кодирования : Lavf51.12.1

Video
Идентификатор : 1
Формат : AVC
Формат/Информация : Advanced Video Codec
Профиль формата : Baseline@L3.1
Параметр CABAC формата : No
Параметр ReFrames формата : 1 frame
Параметр GOP формата : M=1, N=12
Идентификатор кодека : avc1
Идентификатор кодека/Информация : Advanced Video Coding
Продолжительность : 43mn 20s
Вид битрейта : Variable
Битрейт : 2 487 Kbps
Максимальный битрейт : 3 750 Kbps
Ширина : 1 280 pixels
Высота : 720 pixels
Соотношение сторон : 16:9
Режим частоты кадров : Constant
Частота кадров : 23.976 fps
Частота кадров в оригинале : 24.000 fps
Цветовое пространство : YUV
Субдискретизация насыщенности : 4:2:0
Битовая глубина : 8 bits
Тип развёртки : Progressive
Бит/(Пиксели*Кадры) : 0.113
Размер потока : 770 MiB (85%)
Дата кодирования : UTC 2011-11-16 15:40:33
Дата пометки : UTC 2011-11-16 15:40:33

Audio
Идентификатор : 2
Формат : AAC
Формат/Информация : Advanced Audio Codec
Профиль формата : LC
Идентификатор кодека : 40
Продолжительность : 43mn 19s
Вид битрейта : Variable
Битрейт : 447 Kbps
Каналы : 6 channels
Расположение каналов : Front: L C R, Side: L R, LFE
Частота : 44.1 KHz
Метод сжатия : Lossy
Размер потока : 138 MiB (15%)
Дата кодирования : UTC 2011-11-16 15:40:33
Дата пометки : UTC 2011-11-16 15:40:33


General
Формат : MPEG-4
Профиль формата : Base Media
Идентификатор кодека : isom
Размер файла : 1.08 GiB
Продолжительность : 43mn 24s
Режим общего битрейта : Variable
Общий поток : 3 563 Kbps
Дата кодирования : UTC 2012-08-27 14:59:50
Дата пометки : UTC 2012-08-27 14:59:50
Программа кодирования : Lavf51.12.1

Video
Идентификатор : 1
Формат : AVC
Формат/Информация : Advanced Video Codec
Профиль формата : Baseline@L3.1
Параметр CABAC формата : No
Параметр ReFrames формата : 1 frame
Параметр GOP формата : M=1, N=12
Идентификатор кодека : avc1
Идентификатор кодека/Информация : Advanced Video Coding
Продолжительность : 43mn 24s
Вид битрейта : Variable
Битрейт : 3 105 Kbps
Максимальный битрейт : 4 500 Kbps
Ширина : 1 280 pixels
Высота : 720 pixels
Соотношение сторон : 16:9
Режим частоты кадров : Constant
Частота кадров : 25.000 fps
Частота кадров в оригинале : 24.000 fps
Цветовое пространство : YUV
Субдискретизация насыщенности : 4:2:0
Битовая глубина : 8 bits
Тип развёртки : Progressive
Бит/(Пиксели*Кадры) : 0.135
Размер потока : 964 MiB (87%)
Дата кодирования : UTC 2012-08-27 14:59:50
Дата пометки : UTC 2012-08-27 14:59:50

Audio
Идентификатор : 2
Формат : AAC
Формат/Информация : Advanced Audio Codec
Профиль формата : LC
Идентификатор кодека : 40
Продолжительность : 43mn 24s
Вид битрейта : Variable
Битрейт : 454 Kbps
Каналы : 6 channels
Расположение каналов : Front: L C R, Side: L R, LFE
Частота : 44.1 KHz
Метод сжатия : Lossy
Размер потока : 141 MiB (13%)
Дата кодирования : UTC 2012-08-27 14:59:50
Дата пометки : UTC 2012-08-27 14:59:50




   
Торрент: Зарегистрирован [Сентябрь 17, 2013, 9:19 pm]
Сериалы Скачать торрент Магнет ссылка Смотреть онлайн
Скачать торрент
[ Размер 113.72 КБ / Просмотров 29 ]
Статус:
Проверен
---
.torrent скачан: 17 раз
Приватный: Нет (DHT включён)
Размер: 43.18 ГБ (46 369 498 513)
   
Аватара пользователя
Denny
 
Раздал: 7.49 ТБ
Скачал: 807.97 ГБ
Ратио: 1007.499
Сообщения: 1934
Зарегистрирован: Ноябрь 19, 2012, 10:49 pm
Откуда: Россия

Флаг страны: Russia

  • Похожие торренты
    Ответы
    Просмотры
    Последнее сообщение

Вернуться в Сериалы



Кто сейчас на конференции

Сейчас эту тему просматривают: нет зарегистрированных пользователей и гости: 1

cron
Ресурс не содержит никакой другой информации, кроме описаний отдельных файлов или их групп, имеющихся у некоторых пользователей данного ресурса. Подтверждением наличия данных файлов у пользователя может иногда являться специальный набор значений, представляющих собой результаты применения односторонних хеш-функций к этим файлам или их группам. Данные наборы значений объединяются пользователями в единое целое и могут быть выложены ими вместе с описаниями имеющихся у них файлов. Администрация данного ресурса не имеет физической возможности убедиться, что описания файлов, выложенные нашими пользователями, равно как и созданные ими наборы хешей от файлов, соответствуют реальным файлам имеющимся у пользователей, а не созданы каким-либо иным способом.
cron
Яндекс.Метрика