Ловушка (серии 1-24 из 24) [2013, SATRip]

Отечественные и зарубежные сериалы
 Статистика раздачи 
Размер: 12.77 ГБ   |  Зарегистрирован: Декабрь 13, 2013, 5:18 pm   |   .torrent скачан: 10 раз
Сидеров: 25  [ 0 байт/сек ]   Личеров: 4  [ 0 байт/сек ]  

Ловушка (серии 1-24 из 24) [2013, SATRip]

Сообщение Denny » Декабрь 13, 2013, 5:18 pm



Весь сезон!

Название:   Ловушка
Слоган:   «Никто не умирает дважды. Победив, наточи нож ...»
Год:   2013
Жанр:   драма, криминал
Серии: 1-24
Всего серий в сезоне : 24
Режиссёр: Сергей Коротаев
Сценарий: Василий Попов, Дмитрий Лысенко, Евгений Гориславец
Продюсеры: Армен Давитян, Виктор Мирский
Оператор : Павел Небера
Художник : Андрей Гречишкин
В ролях: Иван Оганесян, Сергей Газаров, Сергей Стрельников, Анатолий Хостикоев, Сергей Сосновский, Рамиль Сабитов, Игорь Ботвин, Александр Форманчук, Максим Дрозд, Евгений Ефремов, Станислав Боклан …
Описание: Главе самого мощного городского клана удалось прекратить жестокие криминальные войны. Сам же он решил отойти от дел и передать их своим молодым и дерзким помощникам. Они довольно быстро удвоили доходы клана, но своими агрессивными действиями вызвали волну недовольства остального криминального мира. Мечта «крестного отца» уйти на покой никак не исполнится, так как  ему постоянно приходится вмешиваться, чтобы сохранить пошатнувшийся мир. Но мир выгоден не всем: после 12 лет в тюрьме в город возвращается крупный криминальный авторитет, готовый любыми способами вернуть утраченные позиции.
Выпущено: Россия, Украина  / Film.ua, Централпартнершип
Продолжительность: 24 x ~ 00:41:51
Перевод: Оригинал
Формат: avi
Качество: SATRip
Видео: 720x384 (1,857:1), 25.00 fps, XviD MPEG-4  ~ 1608 kbps avg, 0.233 bit/pixel
Аудио: 48 kHz, MPEG Layer 3, 2/0 (L,R) ch, ~ 192 kbps avg
General
Complete name                            : .......Lovyshka.2013\Ловушка.(01.seriya).2013.XviD.SATRip.avi
Format                                   : AVI
Format/Info                              : Audio Video Interleave
File size                                : 516 MiB
Duration                                 : 39mn 50s
Overall bit rate                         : 1 810 Kbps
Writing application                      : VirtualDubModRus 1.5.10.2 (build 2542/release)
Writing library                          : VirtualDubMod build 2542/release

Video
ID                                       : 0
Format                                   : MPEG-4 Visual
Format profile                           : Advanced Simple@L5
Format settings, BVOP                    : 1
Format settings, QPel                    : No
Format settings, GMC                     : No warppoints
Format settings, Matrix                  : Default (H.263)
Codec ID                                 : XVID
Codec ID/Hint                            : XviD
Duration                                 : 39mn 50s
Bit rate                                 : 1 608 Kbps
Width                                    : 720 pixels
Height                                   : 384 pixels
Display aspect ratio                     : 1.875
Frame rate                               : 25.000 fps
Color space                              : YUV
Chroma subsampling                       : 4:2:0
Bit depth                                : 8 bits
Scan type                                : Progressive
Compression mode                         : Lossy
Bits/(Pixel*Frame)                       : 0.233
Stream size                              : 458 MiB (89%)
Writing library                          : XviD 1.2.1 (UTC 2008-12-04)

Audio
ID                                       : 1
Format                                   : MPEG Audio
Format version                           : Version 1
Format profile                           : Layer 3
Mode                                     : Joint stereo
Mode extension                           : MS Stereo
Codec ID                                 : 55
Codec ID/Hint                            : MP3
Duration                                 : 39mn 50s
Bit rate mode                            : Constant
Bit rate                                 : 192 Kbps
Channel(s)                               : 2 channels
Sampling rate                            : 48.0 KHz
Compression mode                         : Lossy
Stream size                              : 54.7 MiB (11%)
Alignment                                : Aligned on interleaves
Interleave, duration                     : 40 ms (1.00 video frame)
Interleave, preload duration             : 504 ms
Writing library                          : LAME3.99r
Encoding settings                        : -m j -V 4 -q 2 -lowpass 18.6 -b 192







   
Торрент: Зарегистрирован [Декабрь 13, 2013, 5:18 pm]
Сериалы Скачать торрент Магнет ссылка Смотреть онлайн
Скачать торрент
[ Размер 18.71 КБ / Просмотров 38 ]
Статус:
---
---
.torrent скачан: 10 раз
Приватный: Нет (DHT включён)
Размер: 12.77 ГБ (13 716 930 560)
   
Аватара пользователя
Denny
 
Раздал: 7.49 ТБ
Скачал: 807.97 ГБ
Ратио: 1007.499
Сообщения: 1934
Зарегистрирован: Ноябрь 19, 2012, 10:49 pm
Откуда: Россия

Флаг страны: Russia

  • Похожие торренты
    Ответы
    Просмотры
    Последнее сообщение

Вернуться в Сериалы



Кто сейчас на конференции

Сейчас эту тему просматривают: нет зарегистрированных пользователей и гости: 1

Ресурс не содержит никакой другой информации, кроме описаний отдельных файлов или их групп, имеющихся у некоторых пользователей данного ресурса. Подтверждением наличия данных файлов у пользователя может иногда являться специальный набор значений, представляющих собой результаты применения односторонних хеш-функций к этим файлам или их группам. Данные наборы значений объединяются пользователями в единое целое и могут быть выложены ими вместе с описаниями имеющихся у них файлов. Администрация данного ресурса не имеет физической возможности убедиться, что описания файлов, выложенные нашими пользователями, равно как и созданные ими наборы хешей от файлов, соответствуют реальным файлам имеющимся у пользователей, а не созданы каким-либо иным способом.
cron
Яндекс.Метрика