Праздник для убийцы / Killer Holiday (2013) DVDRip-AVC | L2

Фильмы в формате DVD
 Статистика раздачи 
Размер: 1.54 ГБ   |  Зарегистрирован: Декабрь 21, 2013, 7:05 pm   |   .torrent скачан: 371 раз
Сидеров: 28  [ 0 байт/сек ]   Личеров: 0  [ 0 байт/сек ]  

Праздник для убийцы / Killer Holiday (2013) DVDRip-AVC | L2

Сообщение Denny » Декабрь 21, 2013, 7:05 pm



Информация о фильме
Название: Праздник для убийцы
Оригинальное название: Killer Holiday
Год выхода: 2013
Жанр: ужасы, триллер
Режиссер: Марти Томас
В ролях: Майкл Копон, Рэйчел Лара, Джулия Бет Штерн, Алекс Мэндел, Рэйчел Уиксом, Мэтт Кэллоуэй, David Namminga, Noah Gibbings, Гэбриел Оливера, Рич Хоаг

О фильме: Когда восемь подростков, отправившихся весело провести выходные, сворачивают с трассы 66 к заброшенному парку развлечений, начинается кровавая бойня, устроенная психопатом убийцей по четкому плану.



Выпущено: США / RIDICULOUS Pictures
Продолжительность: 01:29:15
Озвучивание: Любительское (двухголосое) [DeadSno & den904]

Файл
Формат: MKV
Качество: DVDRip-AVC
Видео: 1833 kb/s, 720x304
Аудио: Russian: MP3, 192 kb/s (2 ch) / English: AC3, 448 kb/s (6 ch)

Format : Matroska
Format version : Version 4 / Version 2
File size : 1.54 GiB
Duration : 1h 29mn
Overall bit rate : 2 475 Kbps
Encoded date : UTC 2013-12-20 09:07:56
Writing application : mkvmerge v6.1.0 ('Old Devil') built on Mar 4 2013 09:10:42
Writing library : libebml v1.3.0 + libmatroska v1.4.0

Video
ID : 1
Format : AVC
Format/Info : Advanced Video Codec
Format profile : High@L4.1
Format settings, CABAC : Yes
Format settings, ReFrames : 6 frames
Codec ID : V_MPEG4/ISO/AVC
Duration : 1h 29mn
Bit rate : 1 833 Kbps
Width : 720 pixels
Height : 304 pixels
Display aspect ratio : 2.35:1
Frame rate : 23.976 fps
Color space : YUV
Chroma subsampling : 4:2:0
Bit depth : 8 bits
Scan type : Progressive
Bits/(Pixel*Frame) : 0.349
Stream size : 1.11 GiB (72%)
Writing library : x264 core 140 r2377 1ca7bb9
Encoding settings : cabac=1 / ref=7 / deblock=1:-2:-1 / analyse=0x3:0x133 / me=umh / subme=9 / psy=1 / psy_rd=1.00:0.15 / mixed_ref=1 / me_range=32 / chroma_me=1 / trellis=1 / 8x8dct=1 / cqm=0 / deadzone=21,11 / fast_pskip=0 / chroma_qp_offset=-5 / threads=12 / lookahead_threads=1 / sliced_threads=0 / nr=1 / decimate=1 / interlaced=0 / bluray_compat=0 / constrained_intra=0 / bframes=3 / b_pyramid=1 / b_adapt=1 / b_bias=0 / direct=1 / weightb=1 / open_gop=0 / weightp=1 / keyint=240 / keyint_min=23 / scenecut=40 / intra_refresh=0 / rc_lookahead=30 / rc=2pass / mbtree=1 / bitrate=1833 / ratetol=1.0 / qcomp=0.60 / qpmin=0 / qpmax=69 / qpstep=4 / cplxblur=20.0 / qblur=0.5 / vbv_maxrate=30000 / vbv_bufsize=30000 / nal_hrd=none / filler=0 / ip_ratio=1.40 / aq=1:1.00
Language : English
Default : Yes
Forced : No
Color primaries : Generic film

Audio #1
ID : 2
Format : MPEG Audio
Format version : Version 1
Format profile : Layer 3
Mode : Joint stereo
Mode extension : MS Stereo
Codec ID : A_MPEG/L3
Codec ID/Hint : MP3
Duration : 1h 29mn
Bit rate mode : Constant
Bit rate : 192 Kbps
Channel(s) : 2 channels
Sampling rate : 48.0 KHz
Compression mode : Lossy
Stream size : 123 MiB (8%)
Writing library : LAME3.99r
Encoding settings : -m j -V 4 -q 3 -lowpass 18.6 -b 192-m j -V 4 -q 3 -lowpass 18.6 -b 192-m j -V 4 -q 3 -lowpass 18.6 -b 192
Language : Russian
Default : Yes
Forced : No

Audio #2
ID : 3
Format : AC-3
Format/Info : Audio Coding 3
Mode extension : CM (complete main)
Format settings, Endianness : Big
Codec ID : A_AC3
Duration : 1h 29mn
Bit rate mode : Constant
Bit rate : 448 Kbps
Channel(s) : 6 channels
Channel positions : Front: L C R, Side: L R, LFE
Sampling rate : 48.0 KHz
Bit depth : 16 bits
Compression mode : Lossy
Stream size : 286 MiB (18%)
Language : English
Default : No
Forced : No




   
Торрент: Зарегистрирован [Декабрь 21, 2013, 7:05 pm]
Видео DVD Скачать торрент Магнет ссылка Смотреть онлайн
Скачать торрент
[ Размер 15.9 КБ / Просмотров 47 ]
Статус:
---
---
.torrent скачан: 371 раз
Приватный: Нет (DHT включён)
Размер: 1.54 ГБ (1 656 613 239)
   
Аватара пользователя
Denny
 
Раздал: 7.49 ТБ
Скачал: 807.97 ГБ
Ратио: 1007.499
Сообщения: 1934
Зарегистрирован: Ноябрь 19, 2012, 10:49 pm
Откуда: Россия

Флаг страны: Russia

Вернуться в Видео DVD



Кто сейчас на конференции

Сейчас эту тему просматривают: нет зарегистрированных пользователей и гости: 1

Ресурс не содержит никакой другой информации, кроме описаний отдельных файлов или их групп, имеющихся у некоторых пользователей данного ресурса. Подтверждением наличия данных файлов у пользователя может иногда являться специальный набор значений, представляющих собой результаты применения односторонних хеш-функций к этим файлам или их группам. Данные наборы значений объединяются пользователями в единое целое и могут быть выложены ими вместе с описаниями имеющихся у них файлов. Администрация данного ресурса не имеет физической возможности убедиться, что описания файлов, выложенные нашими пользователями, равно как и созданные ими наборы хешей от файлов, соответствуют реальным файлам имеющимся у пользователей, а не созданы каким-либо иным способом.
cron
Яндекс.Метрика