Кулинар [S01-S02] (2012- 2013) WEB-DLRip-AVC 720p

Отечественные и зарубежные сериалы
 Статистика раздачи 
Размер: 46.84 ГБ   |  Зарегистрирован: Декабрь 22, 2013, 7:03 am   |   .torrent скачан: 0 раз
Сидеров: 2  [ 0 байт/сек ]   Личеров: 1  [ 0 байт/сек ]  

Кулинар [S01-S02] (2012- 2013) WEB-DLRip-AVC 720p

Сообщение sergey » Декабрь 22, 2013, 7:03 am

Год выпуска: 2012- 2013
Выпущено: Россия, Украина, "Star Media" при участии «Green-Film» по заказу РЕН ТВ
Жанр: Боевик, криминал
Продолжительность: 00:48:00
Сезон: 1-2
Серия: 1-40
Количество серий в сезоне: 40
Перевод:НЕ ТРЕБУЕТСЯ
Субтитры : отсутствуют








Режиссер: Михаил Макаренко, Андрей Иванов




В ролях: Игорь Ботвин, Сергей Гамов, Роман Агеев, Игорь Ламба, Светлана Цвиченко, Кирилл Капица, Андрей Аверков, Юрий Уткин, Ольга Белявская, Евгений Сиротин, Александр Глинский, Рафаил Эйвазов, Денис Кириллов, Владимир Космидайло, Анатолий Ильченко, Александр Мосолов, Геннадий Макоев, Сергей Шкарбан, Сергей Фёдоров (VI), Стэнли Красовицки, Наталья Голованова, Евгений Катаев, Диана Дезмари, Елена Купрашевич, Антон Успенский





Феликс Малинин живёт в Санкт-Петербурге. Среди немногочисленных друзей и знакомых он слывёт неплохим парнем, замкнутым чудаком, постоянно пропадающим в служебных командировках. Плюс у него не совсем обычное пристрастие: он очень любит готовить, причем делает это по-настоящему здорово. На самом деле Феликс служит в ОРБ МВД (оперативно-розыскное бюро). О нём знают лишь несколько человек из руководства службы. К выполнению каждого задания он подходит с особым вкусом, будто готовит очередное блюдо и даже для каждой своей операции придумывает кулинарное название. За что и получил оперативный псевдоним «Кулинар».
Его работа — оперативное внедрение и сбор информации обо всём, что может представлять интерес для правоохранительных органов. Он мастер перевоплощения, артистичен, дерзок, обладает аналитическим складом ума, интеллектуален и способен быстро адаптироваться практически к любой окружающей среде. Стоит ли говорить, что в работе ему порой приходится прибегать к не совсем законным методам, на которые руководство закрывает глаза… если результат положительный.





Качество : WEB-DLRip-AVC 720p
Формат: MPEG-4
Видео кодек: H264
Видео: 3220-3171Кбит/сек,1280х720(16.9),в 25.000кадр/сек,AVC(Baseline@L3.1)(1Ref Frames)
Аудио кодек: AAC
Аудио Russian Dolby Digital 5.1:257-245Кбит/сек,44.1КГц,6каналов,AAC,(Version4)





Звуковая дорожка сделана путем наложения чистого голоса озвучивателей на центральный канал оригинальной дорожки. Качество идентично звуковой дорожке.






General
Полное имя : D:С Е Р И А Л ЫKULINAR_2012_-_2013_S01-S02_RUS[Russia_Green-lFilm]_DD5.1_x264_Nikolai.Baranov_WEB-DLRip-AVC_(720p)S01KULINAR_2012_S01E01_RUS[Russia_Green-lFilm]_DD5.1_x264_Nikolai.Baranov_WEB-DLRip-AVC_(720p).mp4
Формат : MPEG-4
Профиль формата : Base Media
Идентификатор кодека : isom
Размер файла : 1.16 GiB
Продолжительность : 47mn 50s
Режим общего битрейта : Variable
Общий поток : 3 481 Kbps
Дата кодирования : UTC 2013-12-11 19:15:52
Дата пометки : UTC 2013-12-11 19:15:52
Программа кодирования : Lavf51.12.1
Video
Идентификатор : 1
Формат : AVC
Формат/Информация : Advanced Video Codec
Профиль формата : Baseline@L3.1
Параметр CABAC формата : No
Параметр ReFrames формата : 1 frame
Параметр GOP формата : M=1, N=12
Идентификатор кодека : avc1
Идентификатор кодека/Информация : Advanced Video Coding
Продолжительность : 47mn 49s
Вид битрейта : Variable
Битрейт : 3 220 Kbps
Максимальный битрейт : 4 650 Kbps
Ширина : 1 280 pixels
Высота : 720 pixels
Соотношение сторон : 16:9
Режим частоты кадров : Constant
Частота кадров : 25.000 fps
Частота кадров в оригинале : 24.000 fps
Цветовое пространство : YUV
Субдискретизация насыщенности : 4:2:0
Битовая глубина : 8 bits
Тип развёртки : Progressive
Бит/(Пиксели*Кадры) : 0.140
Размер потока : 1.08 GiB (92%)
Дата кодирования : UTC 2013-12-11 19:15:52
Дата пометки : UTC 2013-12-11 19:15:52
Audio
Идентификатор : 2
Формат : AAC
Формат/Информация : Advanced Audio Codec
Профиль формата : LC
Идентификатор кодека : 40
Продолжительность : 47mn 50s
Вид битрейта : Variable
Битрейт : 257 Kbps
Каналы : 6 channels
Расположение каналов : Front: L C R, Side: L R, LFE
Частота : 44.1 KHz
Метод сжатия : Lossy
Размер потока : 87.9 MiB (7%)
Дата кодирования : UTC 2013-12-11 19:15:52
Дата пометки : UTC 2013-12-11 19:15:52






General
Полное имя : D:С Е Р И А Л ЫKULINAR_2012_-_2013_S01-S02_RUS[Russia_Green-lFilm]_DD5.1_x264_Nikolai.Baranov_WEB-DLRip-AVC_(720p)S02KULINAR_2013_S02E01_RUS[Russia_Green-lFilm]_DD5.1_x264_Nikolai.Baranov_WEB-DLRip-AVC_(720p).mp4
Формат : MPEG-4
Профиль формата : Base Media
Идентификатор кодека : isom
Размер файла : 1.16 GiB
Продолжительность : 48mn 39s
Режим общего битрейта : Variable
Общий поток : 3 421 Kbps
Дата кодирования : UTC 2013-12-11 16:24:19
Дата пометки : UTC 2013-12-11 16:24:19
Программа кодирования : Lavf51.12.1
Video
Идентификатор : 1
Формат : AVC
Формат/Информация : Advanced Video Codec
Профиль формата : Baseline@L3.1
Параметр CABAC формата : No
Параметр ReFrames формата : 1 frame
Параметр GOP формата : M=1, N=12
Идентификатор кодека : avc1
Идентификатор кодека/Информация : Advanced Video Coding
Продолжительность : 48mn 39s
Вид битрейта : Variable
Битрейт : 3 171 Kbps
Максимальный битрейт : 4 650 Kbps
Ширина : 1 280 pixels
Высота : 720 pixels
Соотношение сторон : 16:9
Режим частоты кадров : Constant
Частота кадров : 25.000 fps
Частота кадров в оригинале : 24.000 fps
Цветовое пространство : YUV
Субдискретизация насыщенности : 4:2:0
Битовая глубина : 8 bits
Тип развёртки : Progressive
Бит/(Пиксели*Кадры) : 0.138
Размер потока : 1.08 GiB (93%)
Язык : Russian
Дата кодирования : UTC 2013-12-11 16:24:19
Дата пометки : UTC 2013-12-11 16:24:19
Audio
Идентификатор : 2
Формат : AAC
Формат/Информация : Advanced Audio Codec
Профиль формата : LC
Идентификатор кодека : 40
Продолжительность : 48mn 39s
Вид битрейта : Variable
Битрейт : 245 Kbps
Каналы : 6 channels
Расположение каналов : Front: L C R, Side: L R, LFE
Частота : 44.1 KHz
Метод сжатия : Lossy
Размер потока : 85.3 MiB (7%)
Язык : Russian
Дата кодирования : UTC 2013-12-11 16:24:19
Дата пометки : UTC 2013-12-11 16:24:19






[align=center]







   
Торрент: Зарегистрирован [Декабрь 22, 2013, 7:03 am]
Сериалы Скачать торрент Магнет ссылка Смотреть онлайн
Скачать торрент
[ Размер 122.83 КБ / Просмотров 36 ]
Статус:
---
---
.torrent скачан: 0 раз
Приватный: Нет (DHT включён)
Размер: 46.84 ГБ (50 292 519 805)
   
Аватара пользователя
sergey
 
Раздал: 42.54 ТБ
Скачал: 198.69 ГБ
Ратио: 265.234
Сообщения: 5343
Зарегистрирован: Август 6, 2012, 2:11 pm
Откуда: СССР

Флаг страны: СССР

  • Похожие торренты
    Ответы
    Просмотры
    Последнее сообщение

Вернуться в Сериалы



Кто сейчас на конференции

Сейчас эту тему просматривают: нет зарегистрированных пользователей и гости: 1

cron
Ресурс не содержит никакой другой информации, кроме описаний отдельных файлов или их групп, имеющихся у некоторых пользователей данного ресурса. Подтверждением наличия данных файлов у пользователя может иногда являться специальный набор значений, представляющих собой результаты применения односторонних хеш-функций к этим файлам или их группам. Данные наборы значений объединяются пользователями в единое целое и могут быть выложены ими вместе с описаниями имеющихся у них файлов. Администрация данного ресурса не имеет физической возможности убедиться, что описания файлов, выложенные нашими пользователями, равно как и созданные ими наборы хешей от файлов, соответствуют реальным файлам имеющимся у пользователей, а не созданы каким-либо иным способом.
cron
Яндекс.Метрика