Стремянка и Макаронина | Собачья жизнь / Štaflík a Špagetka | Psí život (сезон 1, серии 1-13(13)) [1969-1971, DVDRip]

Мультфильмы
 Статистика раздачи 
Размер: 1.05 ГБ   |  Зарегистрирован: Декабрь 27, 2013, 6:16 pm   |   .torrent скачан: 14 раз
Сидеров: 139  [ 0 байт/сек ]   Личеров: 2  [ 0 байт/сек ]  

Стремянка и Макаронина | Собачья жизнь / Štaflík a Špagetka | Psí život (сезон 1, серии 1-13(13)) [1969-1971, DVDRip]

Сообщение Denny » Декабрь 27, 2013, 6:16 pm



Стремянка и Макаронина | Собачья жизнь

В оригинале: Štaflík a Špagetka | Psí život
Год: 1969-1971

Сезон: 1

Серии: 1-13

Всего в сезоне серий: 13

Режиссёр: Вацлав Бедрич / Václav Bedřich


Описание:
Веселые и динамичные рисованные мультики о двух неразлучных друзьях - собаках Стремянки и Макаронине. Неутомимые приятели постоянно затевают веселые и забавные игры, а их соседка - ворона старается помешать им. Но проказы вороны-непоседы не остаются безнаказанными.


Выпущено: Чехословакия

Серия: Любимые мультфильмы нашего детства

Роли озвучивали: рисованный сериал, персонажи не разговаривают, действие идет под музыку пражского оркестра.

Композитор: Ярослав Целба / Jaroslav Celba

Продолжительность: 01:23:36 | 13 х ~ 00:07:20

Перевод: Не требуется

Формат: AVI

Качество: DVDRip

Видео: 704x576 (1.222:1), 25 fps, DivX 5, 1664 kbps, 0.164 bit/pixel

Аудио: 48.000 Hz, MPEG Layer 3, 2 ch, ~128 kbps


Интересно: этот сериал на одном только русском языке имеет названий едва ли не больше, чем серий, помимо двух в заголовке - Приключения Стремянки и Макаронины; Истории Штапика и Шпагетки; Штафлик и Шпагетка; Штафик и Шпагетка; Стремянка и Макарона; Про двух собак; Омлет и Макарон; Про Омлета и Макарона...



01. Как Стремянка и Макаронина остались без крыши над головой / 1. Jak Štaflík a Špagetka přišli o boudu

02. Как Стремянка и Макаронина не могли уснуть / Jak Štaflík a Špagetka nemohli usnout

03. Как Стремянка и Макаронина начали строить дом / Jak Štaflík a Špagetka začali stavět dům

04. Как Стремянка и Макаронина возводили стены / Jak Štaflík a Špagetka zdili

05. Как Стремянка и Макаронина загорали / Jak se Štaflík a Špagetka opalovali

06. Как Стремянка и Макаронина крыли крышу / Jak Štaflík a Špagetka dělali střechu

07. Как Стремянка и Макаронина красили / Jak Štaflík a Špagetka malovali

08. Как Стремянка и Макаронина переезжали /  Jak Štaflík a Špagetka stěhovali

09. Как Стремянка и Макаронина обставляли дом мебелью / Jak se Štaflík a Špagetka zařizovali

10. Как Стремянка и Макаронина сажали огород / Jak si Štaflík a Špagetka dělali zahrádku

11. Как Стремянка и Макаронина варили кашу / Jak Štaflík a Špagetka vařili

12. Как Стремянка и Макаронина играли / Jak si Štaflík a Špagetka hráli

13. Как Стремянка и Макаронина отправились отдыхать / Jak Štaflík a Špagetka letěli na výlet




General
      Complete name : ...\Staflik_a_Spagetka(1969-1971).avi
      Format : AVI
      Format/Info : Audio Video Interleave
      File size : 1.05 GiB
      Duration : 1h 23mn
      Overall bit rate : 1 802 Kbps
      Writing library : VirtualDub build 30009/release
   Video #0
      ID : 0
      Format : MPEG-4 Visual
      Format settings, BVOP : 1
      Format settings, QPel : No
      Format settings, GMC : No warppoints
      Format settings, Matrix : Default (H.263)
      Muxing mode : Packed bitstream
      Codec ID : DX50
      Codec ID/Hint : DivX 5
      Duration : 1h 23mn
      Bit rate : 1 664 Kbps
      Width : 704 pixels
      Height : 576 pixels
      Display aspect ratio : 1.222
      Frame rate : 25.000 fps
      Standard : PAL
      Color space : YUV
      Chroma subsampling : 4:2:0
      Bit depth : 8 bits
      Scan type : Progressive
      Compression mode : Lossy
      Bits/(Pixel*Frame) : 0.164
      Stream size : 995 MiB (92%)
      Writing library : DivX 6.7.0 (UTC 2007-09-20)
   Audio #1
      ID : 1
      Format : MPEG Audio
      Format version : Version 1
      Format profile : Layer 3
      Mode : Joint stereo
      Mode extension : MS Stereo
      Codec ID : 55
      Codec ID/Hint : MP3
      Duration : 1h 23mn
      Bit rate mode : Constant
      Bit rate : 128 Kbps
      Channel(s) : 2 channels
      Sampling rate : 48.0 KHz
      Compression mode : Lossy
      Stream size : 76.5 MiB (7%)
      Alignment : Split accross interleaves
      Interleave, duration : 40 ms (1.00 video frame)
      Interleave, preload duration : 500 ms




   
Торрент: Зарегистрирован [Декабрь 27, 2013, 6:16 pm]
Мультфильмы Скачать торрент Магнет ссылка Смотреть онлайн
Скачать торрент
[ Размер 10.9 КБ / Просмотров 29 ]
Статус:
---
---
.torrent скачан: 14 раз
Приватный: Нет (DHT включён)
Размер: 1.05 ГБ (1 129 673 368)
   
Аватара пользователя
Denny
 
Раздал: 7.49 ТБ
Скачал: 807.97 ГБ
Ратио: 1007.499
Сообщения: 1934
Зарегистрирован: Ноябрь 19, 2012, 10:49 pm
Откуда: Россия

Флаг страны: Russia

Вернуться в Мультфильмы



Кто сейчас на конференции

Сейчас эту тему просматривают: нет зарегистрированных пользователей и гости: 1

cron
Ресурс не содержит никакой другой информации, кроме описаний отдельных файлов или их групп, имеющихся у некоторых пользователей данного ресурса. Подтверждением наличия данных файлов у пользователя может иногда являться специальный набор значений, представляющих собой результаты применения односторонних хеш-функций к этим файлам или их группам. Данные наборы значений объединяются пользователями в единое целое и могут быть выложены ими вместе с описаниями имеющихся у них файлов. Администрация данного ресурса не имеет физической возможности убедиться, что описания файлов, выложенные нашими пользователями, равно как и созданные ими наборы хешей от файлов, соответствуют реальным файлам имеющимся у пользователей, а не созданы каким-либо иным способом.
cron
Яндекс.Метрика