Стремянка и Макаронина | Собачья жизнь / Štaflík a Špagetka | Psí život (сезон 2, серии 1-13(13)) [1988-1990, DVDRip]

Мультфильмы
 Статистика раздачи 
Размер: 1.37 ГБ   |  Зарегистрирован: Декабрь 27, 2013, 6:21 pm   |   .torrent скачан: 58 раз
Сидеров: 78  [ 0 байт/сек ]   Личеров: 3  [ 0 байт/сек ]  

Стремянка и Макаронина | Собачья жизнь / Štaflík a Špagetka | Psí život (сезон 2, серии 1-13(13)) [1988-1990, DVDRip]

Сообщение Denny » Декабрь 27, 2013, 6:21 pm



Стремянка и Макаронина | Собачья жизнь

В оригинале: Štaflík a Špagetka | Psí život
Год: 1988-1990

Сезон: 2

Серии: 1-13

Всего в сезоне серий: 13

Режиссёр: Вацлав Бедрич / Václav Bedřich


Описание:
Веселые и динамичные рисованные мультики о двух неразлучных друзьях - собаках Стремянки и Макаронине. Неутомимые приятели постоянно затевают веселые и забавные игры, а их соседка - ворона старается помешать им. Но проказы вороны-непоседы не остаются безнаказанными.


Выпущено: Чехословакия

Серия: Любимые мультфильмы нашего детства

Роли озвучивали: рисованный сериал, персонажи не разговаривают, действие идет под музыку пражского оркестра.

Композитор: Ярослав Целба / Jaroslav Celba

Продолжительность: 01:34:31 | 13 х ~ 00:07:30

Перевод: Не требуется (названия серий - русский, профессиональный)

Формат: AVI

Качество: DVDRip

Видео: 720x544 (4:3), 25 fps, DivX 5, 1872 kbps, 0.191 bit/pixel

Аудио: 48.000 Hz, MPEG Layer 3, 2 ch, ~192 kbps


Интересно: этот сериал на одном только русском языке имеет названий едва ли не больше, чем серий, помимо двух в заголовке - Приключения Стремянки и Макаронины; Как Стремянка и Макаронина...; Истории Штапика и Шпагетки; Штафлик и Шпагетка; Штафик и Шпагетка; Стремянка и Макарона; Про двух собак; Омлет и Макарон; Про Омлета и Макарона...



01. Правильный тон / Správný tón

02. Сам себе художник / Namaluj si sám

03. Мастера танца / Mistři tance

04. Страстный читатель / Vášnivý čtenář

05. Няньки / Chůvy

06. Искатели воды / Proutkaři

07. Рыбаки / Rybáři

08. Шахматы / Divadlo

09. Театр /  Šachy

10. Спортсмены Sportovci

11. Конструктор / Stavebnice

12. Фотографы / Fofografové

13. Наконец-то хороший поступок / Konečně dobrý skutek




General
      Complete name : ...\Staflik_a_Spagetka(1988-1990).avi
      Format : AVI
      Format/Info : Audio Video Interleave
      File size : 1.37 GiB
      Duration : 1h 34mn
      Overall bit rate : 2 071 Kbps
      Writing application : VirtualDubMod 1.5.4.1 (build 2178/release)
      Writing library : VirtualDubMod build 2178/release
   Video #0
      ID : 0
      Format : MPEG-4 Visual
      Format settings, BVOP : 1
      Format settings, QPel : No
      Format settings, GMC : No warppoints
      Format settings, Matrix : Default (H.263)
      Muxing mode : Packed bitstream
      Codec ID : DX50
      Codec ID/Hint : DivX 5
      Duration : 1h 34mn
      Bit rate : 1 872 Kbps
      Width : 720 pixels
      Height : 544 pixels
      Display aspect ratio : 4:3
      Frame rate : 25.000 fps
      Color space : YUV
      Chroma subsampling : 4:2:0
      Bit depth : 8 bits
      Scan type : Progressive
      Compression mode : Lossy
      Bits/(Pixel*Frame) : 0.191
      Stream size : 1.24 GiB (90%)
      Writing library : DivX 6.7.0 (UTC 2007-09-20)
   Audio #1
      ID : 1
      Format : MPEG Audio
      Format version : Version 1
      Format profile : Layer 3
      Mode : Joint stereo
      Mode extension : MS Stereo
      Codec ID : 55
      Codec ID/Hint : MP3
      Duration : 1h 34mn
      Bit rate mode : Constant
      Bit rate : 192 Kbps
      Channel(s) : 2 channels
      Sampling rate : 48.0 KHz
      Compression mode : Lossy
      Stream size : 130 MiB (9%)
      Alignment : Aligned on interleaves
      Interleave, duration : 80 ms (2.00 video frames)
      Interleave, preload duration : 504 ms
      Writing library : LAME3.97
      Encoding settings : -m j -V 4 -q 2 -lowpass 18.6 -b 192
      Language : Russian




   
Торрент: Зарегистрирован [Декабрь 27, 2013, 6:21 pm]
Мультфильмы Скачать торрент Магнет ссылка Смотреть онлайн
Скачать торрент
[ Размер 14.07 КБ / Просмотров 49 ]
Статус:
---
---
.torrent скачан: 58 раз
Приватный: Нет (DHT включён)
Размер: 1.37 ГБ (1 468 286 976)
   
Аватара пользователя
Denny
 
Раздал: 7.49 ТБ
Скачал: 807.97 ГБ
Ратио: 1007.499
Сообщения: 1934
Зарегистрирован: Ноябрь 19, 2012, 10:49 pm
Откуда: Россия

Флаг страны: Russia

Вернуться в Мультфильмы



Кто сейчас на конференции

Сейчас эту тему просматривают: нет зарегистрированных пользователей и гости: 1

cron
Ресурс не содержит никакой другой информации, кроме описаний отдельных файлов или их групп, имеющихся у некоторых пользователей данного ресурса. Подтверждением наличия данных файлов у пользователя может иногда являться специальный набор значений, представляющих собой результаты применения односторонних хеш-функций к этим файлам или их группам. Данные наборы значений объединяются пользователями в единое целое и могут быть выложены ими вместе с описаниями имеющихся у них файлов. Администрация данного ресурса не имеет физической возможности убедиться, что описания файлов, выложенные нашими пользователями, равно как и созданные ими наборы хешей от файлов, соответствуют реальным файлам имеющимся у пользователей, а не созданы каким-либо иным способом.
cron
Яндекс.Метрика