Смертельный спуск / Deadly Descent / Yeti (2013) HDRip | L

Фильмы в формате DVD
 Статистика раздачи 
Размер: 1.49 ГБ   |  Зарегистрирован: Январь 25, 2014, 8:16 am   |   .torrent скачан: 5 раз
Сидеров: 22  [ 0 байт/сек ]   Личеров: 5  [ 0 байт/сек ]  

Смертельный спуск / Deadly Descent / Yeti (2013) HDRip | L

Сообщение sergey » Январь 25, 2014, 8:16 am

Информация о фильме
Название: Смертельный спуск
Оригинальное название: Deadly Descent / Yeti
Год выхода: 2013

Режиссер: Марко Мякилаксо
В ролях: Адриан Пол, Чак Кэмпбелл, Элизабет Крофт, Лорен О'Нил, Николас Боултон, Сэм Кэссиди, Джесси Стил, Шон Тил

О фильме: Горные вершины таят на своих склонах множество опасностей: новички, отправившиеся на лоно дикой природы, могут замерзнуть, потеряться в незнакомом месте, наконец, сорваться вниз. Но кто бы мог подумать, что все эти опасности отступят перед лицом новой – жуткого монстра, который выбрал своим домом занесенный снегом горный массив? В расположенном близ поселении давно ходит легенда о существовании такого чудовища, нападающего на альпинистов и лыжников, которые оказались среди гор в одиночестве.
После того, как спасатель Брайан Таннер теряет в горах отца, его терпению приходит конец: он отправляется на враждебные склоны, чтобы отомстить. Его сестра Нина не разделяет стремлений брата, но время идет, а Брайан не возвращается, и тогда она решает взять все в свои руки. Найдя себе целую команду помощников и пилота, готового доставить их на место, Нина отправляется на спасение Брайана. Оказавшись в горах, она очень скоро понимает, почему от монстра так сложно спастись...



Выпущено: США / Syfy, UFO International Productions
Продолжительность: 01:24:58
Перевод: Любительский многоголосый [online movies - IVI]

Файл
Качество: HDRip (исх. BDRip 1080p)
Формат: AVI
Видео: XviD, 720x400, 23.976fps, 1849 kbps
Аудио: Русский: AC3, 48,0 KHz,192 kb/s (2 ch)
Аудио: Английский: AC3, 48,0 KHz, 448 kb/s (6 ch)

Формат : AVI
Формат/Информация : Audio Video Interleave
Профиль формата : OpenDML
Размер файла : 1,49 Гбайт
Продолжительность : 1 ч. 24 м.
Общий поток : 2508 Кбит/сек
Программа кодирования : Lavf51.12.1

Видео
Идентификатор : 0
Формат : MPEG-4 Visual
Профиль формата : Simple@L1
Параметр BVOP формата : Нет
Параметр QPel формата : Нет
Параметр GMC формата : Без точки перехода
Параметр матрицы формата : Default (H.263)
Идентификатор кодека : FMP4
Продолжительность : 1 ч. 24 м.
Битрейт : 1849 Кбит/сек
Ширина : 720 пикселей
Высота : 400 пикселей
Соотношение сторон : 16:9
Частота кадров : 23,976 кадра/сек
Цветовое пространство : YUV
Субдискретизация насыщенности : 4:2:0
Битовая глубина : 8 бит
Тип развёртки : Прогрессивная
Метод сжатия : С потерями
Бит/(Пиксели*Кадры) : 0.268
Размер потока : 1,10 Гбайт (74%)
Библиотека кодирования : Lavc51.40.4

Аудио #1
Идентификатор : 1
Формат : AC-3
Формат/Информация : Audio Coding 3
Расширение режима : CM (complete main)
Параметр Endianness формата : Big
Идентификатор кодека : 2000
Продолжительность : 1 ч. 24 м.
Вид битрейта : Постоянный
Битрейт : 192 Кбит/сек
Каналы : 2 канала
Расположение каналов : Front: L R
Частота : 48,0 КГц
Битовая глубина : 16 бит
Метод сжатия : С потерями
Размер потока : 117 Мбайт (8%)
Выравнивание : Соединение по промежуткам
Продолжительность промежутка : 32 мс. (0,77 видеокадр)
Время предзагрузки промежутка : 32 мс.

Аудио #2
Идентификатор : 2
Формат : AC-3
Формат/Информация : Audio Coding 3
Расширение режима : CM (complete main)
Параметр Endianness формата : Big
Идентификатор кодека : 2000
Продолжительность : 1 ч. 24 м.
Вид битрейта : Постоянный
Битрейт : 448 Кбит/сек
Каналы : 6 каналов
Расположение каналов : Front: L C R, Side: L R, LFE
Частота : 48,0 КГц
Битовая глубина : 16 бит
Метод сжатия : С потерями
Размер потока : 272 Мбайт (18%)
Выравнивание : Соединение по промежуткам
Продолжительность промежутка : 32 мс. (0,77 видеокадр)
Время предзагрузки промежутка : 32 мс.

   
Торрент: Зарегистрирован [Январь 25, 2014, 8:16 am]
Видео DVD Скачать торрент Магнет ссылка Смотреть онлайн
Скачать торрент
[ Размер 15.4 КБ / Просмотров 20 ]
Статус:
---
---
.torrent скачан: 5 раз
Приватный: Нет (DHT включён)
Размер: 1.49 ГБ (1 598 440 252)
   
Аватара пользователя
sergey
 
Раздал: 42.54 ТБ
Скачал: 198.69 ГБ
Ратио: 265.234
Сообщения: 5343
Зарегистрирован: Август 6, 2012, 2:11 pm
Откуда: СССР

Флаг страны: СССР

  • Похожие торренты
    Ответы
    Просмотры
    Последнее сообщение

Вернуться в Видео DVD



Кто сейчас на конференции

Сейчас эту тему просматривают: нет зарегистрированных пользователей и гости: 1

Ресурс не содержит никакой другой информации, кроме описаний отдельных файлов или их групп, имеющихся у некоторых пользователей данного ресурса. Подтверждением наличия данных файлов у пользователя может иногда являться специальный набор значений, представляющих собой результаты применения односторонних хеш-функций к этим файлам или их группам. Данные наборы значений объединяются пользователями в единое целое и могут быть выложены ими вместе с описаниями имеющихся у них файлов. Администрация данного ресурса не имеет физической возможности убедиться, что описания файлов, выложенные нашими пользователями, равно как и созданные ими наборы хешей от файлов, соответствуют реальным файлам имеющимся у пользователей, а не созданы каким-либо иным способом.
cron
Яндекс.Метрика