Пятая стража / Сезон: 2 / Серии: 1-63 из 63 (Василий Пичул) [2013, Детектив, Мистика, SATRip]

Отечественные и зарубежные сериалы
 Статистика раздачи 
Размер: 30.73 ГБ   |  Зарегистрирован: Февраль 3, 2014, 9:45 am   |   .torrent скачан: 11 раз
Сидеров: 43  [ 0 байт/сек ]   Личеров: 39  [ 0 байт/сек ]  

Пятая стража / Сезон: 2 / Серии: 1-63 из 63 (Василий Пичул) [2013, Детектив, Мистика, SATRip]

Сообщение Denny » Февраль 3, 2014, 10:20 am





Пятая стража

Год выпуска: 2013
Производство: Россия, ООО "Объединение Телевизионных Компаний"
Жанр: Детектив, Мистика
Продолжительность: ~ 00:43:00

Режиссёр: Василий Пичул
В ролях: Кирилл Козаков, Олег Семисынов, Майя Вознесенская, Ростислав Бершауэр, Ирина Виноградова, Матвей Матвеев, Егор Вадов и др.

Описание: Продолжение легендарного сериала про вампиров и князе тьмы,света и мрака,а также существовании пяти стражей. 500 лет назад было предсказано князю Тьмы, Дракуле, что Темные Силы падут от руки своего. От руки вампира. От моей руки. Любимец всех зрителей, вампир Феликс в исполнении Кирилла Козакова, снова возьмется за расследование запутанных преступлений вместе со своей обновленной командой детективов, наделенных удивительной силой, недоступной простым смертным. В составе команды - детектив-медиум, детектив-невидимка, детектив-фантом и другие. Во втором сезоне телезрителей ждут еще более загадочные преступления и еще более изощренные попытки запутать следствие.

Качество: SATRip
Формат: AVI
Видео кодек: DivX
Аудио кодек: MP3
Видео: DivX, 720х400, 25 fps, 1500 Кбит/с, 0.208 bit/pixel
Аудио: MPEG Audio Layer 3, 48000Hz, 2ch, 128Kbps

1. Последняя из Бенанданти
2. Вырванная жизнь
3. Ревность
4. Призрак лицея
5. Под кровавой Луной
6. Черная кукушка
7. Знаки смерти
8. Икотка
9. Медвежья тропа
10. Маска Велиса
11. Жертва любви
12. Псы
13. Любовная тоска
14. Кровавая игра
15. Триста лет тому назад
16. Дуэль
13. Любовная тоска
14. Кровавая игра
15. Триста лет тому назад
16. Дуэль
17. Пронзительная история
18. Знаки любви
19. Смерть без завещания
20. Убийство по расчету
21. Проклятый отель
22. Роковая память
23. Тень
24. Жизнь взаймы
25. Отель с привидениями
26. Свет далёких звёзд
27. Адвокат
28. Формула счастья
29. Седые локоны Смерти
30. Круговорот возмездия
31. Вершитель судеб
32. Подкова на удачу
33. Роковой перекресток
34. Безликий
35. Свадьба и смерть
36. Последняя жертва
37. Ночной рингтон
38. Кровные узы
39. Коконы смерти
40. Факелы тьмы
41. О свойствах страсти
42. Накормить мёртвую
43. По трупам
44. Ведьмина лестница
45. Руку и сердце
46. Пиковая дама
47. Ланч во время чумы
48. 10 лет спустя
49. Петля из прошлого
50. Смерть антиквара
51. Поезд смерти
52. Самое дорогое
53. Жажда перемен
54. Притяжение смерти
55. Наколка
56. Зубы дракона
57. Ночь Клеопатры
58. Куколка
59. Не родись блондинкой
60. Коралловая страсть
61. Японика
62. Во имя любви
63. Гробовые деньги

Общее
Полное имя : Пятая стража 2 Сезон\Pjataja.strazha.2.01.SATRip.avi
Формат : AVI
Формат/Информация : Audio Video Interleave
Размер файла : 500 Мбайт
Продолжительность : 43 м.
Общий поток : 1638 Кбит/сек
Библиотека кодирования : VirtualDub build 32842/release
Видео
Идентификатор : 0
Формат : MPEG-4 Visual
Профиль формата : Advanced Simple@L5
Параметр BVOP формата : 1
Параметр QPel формата : Нет
Параметр GMC формата : Без точки перехода
Параметр матрицы формата : Выборочная
Идентификатор кодека : DX50
Идентификатор кодека/Подсказка : DivX 5
Продолжительность : 43 м.
Битрейт : 1501 Кбит/сек
Ширина : 720 пикселя
Высота : 400 пикселей
Соотношение сторон : 16:9
Частота кадров : 25,000 кадров/сек
Цветовое пространство : YUV
Субдискретизация насыщенности : 4:2:0
Битовая глубина : 8 бит
Тип развёртки : Прогрессивная
Метод сжатия : С потерями
Бит/(Пиксели*Кадры) : 0.208
Размер потока : 458 Мбайт (92%)
Библиотека кодирования : DivX 6.8.5 (UTC 2009-08-20)
Аудио
Идентификатор : 1
Формат : MPEG Audio
Версия формата : Version 1
Профиль формата : Layer 3
Режим : Joint stereo
Расширение режима : MS Stereo
Идентификатор кодека : 55
Идентификатор кодека/Подсказка : MP3
Продолжительность : 43 м.
Вид битрейта : Постоянный
Битрейт : 128 Кбит/сек
Каналы : 2 канала
Частота : 48,0 КГц
Метод сжатия : С потерями
Размер потока : 39.1 Мбайт (8%)
Выравнивание : Соединение по промежуткам
Продолжительность промежутка : 40 мс. (1,00 видеокадра)
Время предзагрузки промежутка : 500 мс.


   
Торрент: Зарегистрирован [Февраль 3, 2014, 9:45 am]
Сериалы Скачать торрент Магнет ссылка Смотреть онлайн
Скачать торрент
[ Размер 158.03 КБ / Просмотров 20 ]
Статус:
Проверен
---
.torrent скачан: 11 раз
Приватный: Нет (DHT включён)
Размер: 30.73 ГБ (32 998 283 866)
   
Аватара пользователя
Denny
 
Раздал: 7.49 ТБ
Скачал: 807.97 ГБ
Ратио: 1007.499
Сообщения: 1934
Зарегистрирован: Ноябрь 19, 2012, 10:49 pm
Откуда: Россия

Флаг страны: Russia

  • Похожие торренты
    Ответы
    Просмотры
    Последнее сообщение

Вернуться в Сериалы



Кто сейчас на конференции

Сейчас эту тему просматривают: нет зарегистрированных пользователей и гости: 1

Ресурс не содержит никакой другой информации, кроме описаний отдельных файлов или их групп, имеющихся у некоторых пользователей данного ресурса. Подтверждением наличия данных файлов у пользователя может иногда являться специальный набор значений, представляющих собой результаты применения односторонних хеш-функций к этим файлам или их группам. Данные наборы значений объединяются пользователями в единое целое и могут быть выложены ими вместе с описаниями имеющихся у них файлов. Администрация данного ресурса не имеет физической возможности убедиться, что описания файлов, выложенные нашими пользователями, равно как и созданные ими наборы хешей от файлов, соответствуют реальным файлам имеющимся у пользователей, а не созданы каким-либо иным способом.
cron
Яндекс.Метрика