Лорд. Пёс-полицейский / Серии: 1-24 из 60 (Егор Грамматиков, Александр Грабарь) [2012-2013, Приключения, криминал, IPTVRip]

Отечественные и зарубежные сериалы
 Статистика раздачи 
Размер: 12.87 ГБ   |  Зарегистрирован: Февраль 3, 2014, 10:31 am   |   .torrent скачан: 0 раз
Сидеров: 1  [ 0 байт/сек ]   Личеров: 1  [ 0 байт/сек ]  

Лорд. Пёс-полицейский / Серии: 1-24 из 60 (Егор Грамматиков, Александр Грабарь) [2012-2013, Приключения, криминал, IPTVRip]

Сообщение Denny » Февраль 3, 2014, 10:35 am



Лорд. Пёс-полицейский

Жанр: Приключения, криминал
Производство: Россия, Кинокомпания Медиапрофсоюз
Год выпуска: 2012-2013
Продолжительность: ~ 00:46:00
Режиссёр: Егор Грамматиков, Александр Грабарь
В ролях: Кирилл Гребенщиков, Юрий Сазонов, Сергей Пинчук, Виктор Низовой, Валерий Афанасьев, Светлана Брейкина, Мария Клюквина, Анастасия Кормилицына, Юлия Назаренко, Анна Карышева, Илья Ждаников, Виктор Немец, Андрей Бестужев (Погорельцев), Евгений Москалев, Виталий Панасенко, Александр Никольский (II), Александр Шелудько, Сергей Стегайлов, Елена Спасибо, Николай Зазуля, Николай Клямчук, Денис Сухомлинов, Николай Дроздовский, Любовь Прокопьева, Дмитрий Пройдаков, Валерия Забегаева, Александр Силаев, Алексей Аникин, Наталья Тищенко, Вячеслав Щенин, Александр Лобанов, Игорь Фомин, Оксана Соколова (II), Дмитрий Анисимов, Оксана Костецкая

Описание: Следователь убойного отдела Артем Рудин, однажды оказавшись в эпицентре полицейской спецоперации, знакомится с удивительной служебной собакой по кличке Лорд. Отважный пес спасает Рудину жизнь, а сам оказывается ранен. Это невероятно умный, хитрый и добрый пес. А благодаря своему уникальному нюху, сообразительности и моментальной реакции он ловко догоняет преступников, находит наркотики и слышит бесшумную поступь нападающего.

Качество: IPTVRip
Формат: AVI
Видео кодек: XviD
Аудио кодек: MP3
Видео: 720x400 (1.80:1), 25 fps, XviD build 50 ~1461 kbps avg, 0.20 bit/pixel
Аудио: 48 kHz, MPEG Layer 3, 2 ch, ~192.00 kbps avg

General
Complete name : Lord.Pyos-politseyskiy.2012.XviD.IPTVRip.Files-x\Lord.Pyos-politseyskiy.01.seriya.2012.XviD.IPTVRip.Files-x.avi
Format : AVI
Format/Info : Audio Video Interleave
File size : 550 MiB
Duration : 46mn 13s
Overall bit rate : 1 664 Kbps
Writing application : VirtualDubMod 1.5.10.3 | http://www.virtualdub-fr.org || (build 2550/release)
Writing library : VirtualDubMod build 2550/release
Video
ID : 0
Format : MPEG-4 Visual
Format profile : Advanced Simple@L5
Format settings, BVOP : 1
Format settings, QPel : No
Format settings, GMC : No warppoints
Format settings, Matrix : Default (H.263)
Codec ID : XVID
Codec ID/Hint : XviD
Duration : 46mn 13s
Bit rate : 1 462 Kbps
Width : 720 pixels
Height : 400 pixels
Display aspect ratio : 16:9
Frame rate : 25.000 fps
Color space : YUV
Chroma subsampling : 4:2:0
Bit depth : 8 bits
Scan type : Progressive
Compression mode : Lossy
Bits/(Pixel*Frame) : 0.203
Stream size : 483 MiB (88%)
Writing library : XviD 1.2.1 (UTC 2008-12-04)
Audio
ID : 1
Format : MPEG Audio
Format version : Version 1
Format profile : Layer 3
Codec ID : 55
Codec ID/Hint : MP3
Duration : 46mn 13s
Bit rate mode : Constant
Bit rate : 192 Kbps
Channel(s) : 2 channels
Sampling rate : 48.0 KHz
Compression mode : Lossy
Stream size : 63.5 MiB (12%)
Alignment : Aligned on interleaves
Interleave, duration : 40 ms (1.00 video frame)
Interleave, preload duration : 504 ms
Writing library : LAME3.99r
Encoding settings : -m s -V 4 -q 2 -lowpass 18.6 -b 192


   
Торрент: Зарегистрирован [Февраль 3, 2014, 10:31 am]
Сериалы Скачать торрент Магнет ссылка Смотреть онлайн
Скачать торрент
[ Размер 35.19 КБ / Просмотров 18 ]
Статус:
Проверен
---
.torrent скачан: 0 раз
Приватный: Нет (DHT включён)
Размер: 12.87 ГБ (13 818 273 792)
   
Аватара пользователя
Denny
 
Раздал: 7.49 ТБ
Скачал: 807.97 ГБ
Ратио: 1007.499
Сообщения: 1934
Зарегистрирован: Ноябрь 19, 2012, 10:49 pm
Откуда: Россия

Флаг страны: Russia

  • Похожие торренты
    Ответы
    Просмотры
    Последнее сообщение

Вернуться в Сериалы



Кто сейчас на конференции

Сейчас эту тему просматривают: нет зарегистрированных пользователей и гости: 1

Ресурс не содержит никакой другой информации, кроме описаний отдельных файлов или их групп, имеющихся у некоторых пользователей данного ресурса. Подтверждением наличия данных файлов у пользователя может иногда являться специальный набор значений, представляющих собой результаты применения односторонних хеш-функций к этим файлам или их группам. Данные наборы значений объединяются пользователями в единое целое и могут быть выложены ими вместе с описаниями имеющихся у них файлов. Администрация данного ресурса не имеет физической возможности убедиться, что описания файлов, выложенные нашими пользователями, равно как и созданные ими наборы хешей от файлов, соответствуют реальным файлам имеющимся у пользователей, а не созданы каким-либо иным способом.
cron
Яндекс.Метрика