Непобедимый / Unbeatable / MMA / Ji zhan (2013) HDRip от BTT-TEAM

Не вошедшее ни в одну из категорий
 Статистика раздачи 
Размер: 2.18 ГБ   |  Зарегистрирован: Февраль 3, 2014, 4:07 pm   |   .torrent скачан: 60 раз
Сидеров: 56  [ 0 байт/сек ]   Личеров: 1  [ 0 байт/сек ]  

Непобедимый / Unbeatable / MMA / Ji zhan (2013) HDRip от BTT-TEAM

Сообщение Denny » Февраль 3, 2014, 4:07 pm



Непобедимый / Unbeatable / MMA / Ji zhan

Страна: Гонконг
Жанр: боевик, драма, спорт
Год выпуска: 2013
Продолжительность: 01:56:06

Перевод: Любительский одноголосый
Cубтитры: Русские
Оригинальная аудиодорожка: Китайский

Режиссер: Данте Лам / Dante Lam

В ролях: Ник Чун / Nick Cheung в роли Чин Фая
Эдди Пэн / Eddie Peng в роли Линь Сыци
Мэй Тин / Mei Ting в роли Гвен
Энди Он / Andy On в роли Ли Цзытяня

Описание: Чин Фай, в прошлом двукратный чемпион по смешанным единоборствам, сбегает из Гонконга в Макао от ростовщиков.
Неожиданно встречает Линь Сыци, который полон решимости выиграть чемпионат по смешанным боевым искусствам.
Фай становится наставником Сыци и заново открывает для себя страсть не только к боям, но и к жизни.

Релиз группы:

Озвучивание: Ворон

Качество видео: HDRip
Формат видео: AVI
Видео: 720x304 (2.37:1), 24 fps, XviD MPEG-4 ~1788 kbps avg, 0.34 bit/pixel
Аудио: 48 kHz, AC3 Dolby Digital, 3/2 (L,C,R,l,r) + LFE ch, ~448 kbps (Русский)
Аудио 2: 48 kHz, AC3 Dolby Digital, 3/2 (L,C,R,l,r) + LFE ch, ~448 kbps (Китайский)
Формат субтитров: srt




1
00:00:44,225 --> 00:00:46,254
Юньнань

2
00:01:43,102 --> 00:01:45,510
Пекин

3
00:01:54,913 --> 00:01:56,815
Господин Чэнь.

4
00:01:57,316 --> 00:02:01,219
Еще один год прошел.

5
00:02:01,220 --> 00:02:03,128
Неплохо выглядишь!

6
00:02:05,624 --> 00:02:08,126
Мы всегда приходим первыми
на встречи выпускников.

7
00:02:08,127 --> 00:02:11,229
А в прошлом году где ты был?

8
00:02:11,230 --> 00:02:13,731
Пришлось поскитаться.

9
00:02:13,732 --> 00:02:16,200
Дайте им «красные конверты»...

10
00:02:16,201 --> 00:02:17,401
Что за повод?

11
00:02:17,402 --> 00:02:19,604
Отец умер в прошлом месяце.

12
00:02:19,605 --> 00:02:21,606
Тогда почему празднуешь?

13
00:02:21,607 --> 00:02:23,209
Интересно все сложилось.

14
00:02:24,610 --> 00:02:27,812
Теперь у меня 1,75 миллиарда.

15
00:02:27,813 --> 00:02:30,314
Сегодня тебе не нужно
ни за что платить...

16
00:02:30,315 --> 00:02:33,117
Все принадлежит мне.

17
00:02:33,118 --> 00:02:34,619
Кто такой Чэнь?

18
00:02:34,620 --> 00:02:37,722
Мажор, сын
богатеньких родителей.

19
00:02:37,723 --> 00:02:42,226
Значит, он - цель номер один.
Правильно?

20
00:02:42,227 --> 00:02:43,628
Точно.

21
00:02:43,629 --> 00:02:45,630
Не этот.

22
00:02:46,231 --> 00:02:48,799
Слишком ни на кого не похож.

23
00:02:48,800 --> 00:02:51,602
Он заметнее своего компаньона,
но совершенно бесполезен.

24
00:02:51,603 --> 00:02:53,704
Абсолютно бесполезен.

25
00:02:53,705 --> 00:02:57,108
Его отец чудовищно богат,

26
00:02:57,109 --> 00:03:01,412
но он не тратит его деньги.
Считай, что он нищий.

27
00:03:01,413 --> 00:03:04,315
У этого вина очень тонкий вкус.



Формат : AVI
Формат/Информация : Audio Video Interleave
Профиль формата : OpenDML
Размер файла : 2,18 Гбайт
Продолжительность : 1 ч. 56 м.
Общий поток : 2691 Кбит/сек
Программа кодирования : VirtualDubMod 1.5.10.2 (build 2542/release)
Библиотека кодирования : VirtualDubMod build 2542/release

Видео
Идентификатор : 0
Формат : MPEG-4 Visual
Профиль формата : Advanced Simple@L5
Параметр BVOP формата : 2
Параметр QPel формата : Нет
Параметр GMC формата : Без точки перехода
Параметр матрицы формата : Default (MPEG)
Идентификатор кодека : XVID
Идентификатор кодека/Подсказка : XviD
Продолжительность : 1 ч. 56 м.
Битрейт : 1778 Кбит/сек
Ширина : 720 пикселей
Высота : 304 пикселя
Соотношение сторон : 2,35:1
Частота кадров : 24,000 кадра/сек
Цветовое пространство : YUV
Субдискретизация насыщенности : 4:2:0
Битовая глубина : 8 бит
Тип развёртки : Прогрессивная
Метод сжатия : С потерями
Бит/(Пиксели*Кадры) : 0.338
Размер потока : 1,44 Гбайт (66%)
Библиотека кодирования : XviD 1.2.1 (UTC 2008-12-04)

Аудио #1
Идентификатор : 1
Формат : AC-3
Формат/Информация : Audio Coding 3
Расширение режима : CM (complete main)
Параметр Endianness формата : Big
Идентификатор кодека : 2000
Продолжительность : 1 ч. 56 м.
Вид битрейта : Постоянный
Битрейт : 448 Кбит/сек
Каналы : 6 каналов
Расположение каналов : Front: L C R, Side: L R, LFE
Частота : 48,0 КГц
Битовая глубина : 16 бит
Метод сжатия : С потерями
Размер потока : 372 Мбайт (17%)
Выравнивание : Разделение по промежуткам
Продолжительность промежутка : 42 мс. (1,00 видеокадр)
Время предзагрузки промежутка : 500 мс.

Аудио #2
Идентификатор : 2
Формат : AC-3
Формат/Информация : Audio Coding 3
Расширение режима : CM (complete main)
Параметр Endianness формата : Big
Идентификатор кодека : 2000
Продолжительность : 1 ч. 56 м.
Вид битрейта : Постоянный
Битрейт : 448 Кбит/сек
Каналы : 6 каналов
Расположение каналов : Front: L C R, Side: L R, LFE
Частота : 48,0 КГц
Битовая глубина : 16 бит
Метод сжатия : С потерями
Размер потока : 372 Мбайт (17%)
Выравнивание : Разделение по промежуткам
Продолжительность промежутка : 42 мс. (1,00 видеокадр)
Время предзагрузки промежутка : 500 мс.
   
Торрент: Зарегистрирован [Февраль 3, 2014, 4:07 pm]
Остальное Скачать торрент Магнет ссылка
Скачать торрент
[ Размер 11.57 КБ / Просмотров 13 ]
Статус:
Проверен
---
.torrent скачан: 60 раз
Приватный: Нет (DHT включён)
Размер: 2.18 ГБ (2 343 704 387)
   
Аватара пользователя
Denny
 
Раздал: 7.49 ТБ
Скачал: 807.97 ГБ
Ратио: 1007.499
Сообщения: 1934
Зарегистрирован: Ноябрь 19, 2012, 10:49 pm
Откуда: Россия

Флаг страны: Russia

Вернуться в Остальное



Кто сейчас на конференции

Сейчас эту тему просматривают: нет зарегистрированных пользователей и гости: 1

Ресурс не содержит никакой другой информации, кроме описаний отдельных файлов или их групп, имеющихся у некоторых пользователей данного ресурса. Подтверждением наличия данных файлов у пользователя может иногда являться специальный набор значений, представляющих собой результаты применения односторонних хеш-функций к этим файлам или их группам. Данные наборы значений объединяются пользователями в единое целое и могут быть выложены ими вместе с описаниями имеющихся у них файлов. Администрация данного ресурса не имеет физической возможности убедиться, что описания файлов, выложенные нашими пользователями, равно как и созданные ими наборы хешей от файлов, соответствуют реальным файлам имеющимся у пользователей, а не созданы каким-либо иным способом.
cron
Яндекс.Метрика