Хопла. Белая зайка (157 серий) [2012, WEBRip]

Мультфильмы
 Статистика раздачи 
Размер: 1.71 ГБ   |  Зарегистрирован: Февраль 13, 2014, 4:17 pm   |   .torrent скачан: 111 раз
Сидеров: 1323  [ 0 байт/сек ]   Личеров: 237  [ 0 байт/сек ]  

Хопла. Белая зайка (157 серий) [2012, WEBRip]

Сообщение sergey » Февраль 13, 2014, 4:17 pm

Хопла. Белая зайка

Страна: Россия
Жанр: Развивающий мультфильм
Продолжительность: 13:17:26
Количество серий: 157
Год выпуска: 2012
Перевод: Не требуется
Русские субтитры: нет

Режиссёр: Сергей Литвинов
Описание: Развивающие мультики для малышей от 0 до 3х лет: яркие картинки, спокойная музыка, логические пазлы, цифры, цвета, развивалки. Малыш смотрит, а мама комментирует.

Семпл: http://multi-up.com/833081

Качество: WEBRip
Формат: AVI
Видео: 640x480 (1.33:1), 25 fps, XviD build 65 ~200 kbps avg, 0.03 bit/pixel
Аудио: 44.100 kHz, MPEG Layer 3, 2 ch, 96 kbps avg
Субтитры: отсутствуют
Подробные технические данные
Код: Выделить всё
General
Complete name                            : V:\Хопла. Белая зайка\Хопла 001.avi
Format                                   : AVI
Format/Info                              : Audio Video Interleave
File size                                : 11.1 MiB
Duration                                 : 5mn 2s
Overall bit rate                         : 306 Kbps
Writing application                      : VirtualDubMod 1.5.10.3 | www.virtualdub-fr.org || (build 2550/release)
Writing library                          : VirtualDubMod build 2550/release

Video
ID                                       : 0
Format                                   : MPEG-4 Visual
Format profile                           : Advanced Simple@L5
Format settings, BVOP                    : 1
Format settings, QPel                    : No
Format settings, GMC                     : No warppoints
Format settings, Matrix                  : Default (H.263)
Codec ID                                 : XVID
Codec ID/Hint                            : XviD
Duration                                 : 5mn 2s
Bit rate                                 : 200 Kbps
Width                                    : 640 pixels
Height                                   : 480 pixels
Display aspect ratio                     : 4:3
Frame rate                               : 25.000 fps
Color space                              : YUV
Chroma subsampling                       : 4:2:0
Bit depth                                : 8 bits
Scan type                                : Progressive
Compression mode                         : Lossy
Bits/(Pixel*Frame)                       : 0.026
Stream size                              : 7.22 MiB (65%)
Writing library                          : XviD 65

Audio
ID                                       : 1
Format                                   : MPEG Audio
Format version                           : Version 1
Format profile                           : Layer 3
Codec ID                                 : 55
Codec ID/Hint                            : MP3
Duration                                 : 5mn 2s
Bit rate mode                            : Constant
Bit rate                                 : 96.0 Kbps
Channel(s)                               : 2 channels
Sampling rate                            : 44.1 KHz
Compression mode                         : Lossy
Stream size                              : 3.47 MiB (31%)
Alignment                                : Split accross interleaves
Interleave, duration                     : 40 ms (1.00 video frame)
Interleave, preload duration             : 500 ms
Writing library                          : LAME3.99r
Encoding settings                        : -m s -V 4 -q 0 -lowpass 15.1 -b 96
Скриншоты
   
Торрент: Зарегистрирован [Февраль 13, 2014, 4:17 pm]
Мультфильмы Скачать торрент Магнет ссылка Смотреть онлайн
Скачать торрент
[ Размер 46.89 КБ / Просмотров 261 ]
Статус:
Проверен
---
.torrent скачан: 111 раз
Приватный: Нет (DHT включён)
Размер: 1.71 ГБ (1 833 541 632)
   
Аватара пользователя
sergey
 
Раздал: 42.54 ТБ
Скачал: 198.69 ГБ
Ратио: 265.234
Сообщения: 5347
Зарегистрирован: Август 6, 2012, 2:11 pm
Откуда: СССР

Флаг страны: СССР

Вернуться в Мультфильмы



Кто сейчас на конференции

Сейчас эту тему просматривают: нет зарегистрированных пользователей и гости: 1

Ресурс не содержит никакой другой информации, кроме описаний отдельных файлов или их групп, имеющихся у некоторых пользователей данного ресурса. Подтверждением наличия данных файлов у пользователя может иногда являться специальный набор значений, представляющих собой результаты применения односторонних хеш-функций к этим файлам или их группам. Данные наборы значений объединяются пользователями в единое целое и могут быть выложены ими вместе с описаниями имеющихся у них файлов. Администрация данного ресурса не имеет физической возможности убедиться, что описания файлов, выложенные нашими пользователями, равно как и созданные ими наборы хешей от файлов, соответствуют реальным файлам имеющимся у пользователей, а не созданы каким-либо иным способом.
cron
Яндекс.Метрика