Короли Лондона / Lords of London / Lost in Italy (2013) WEB-DL 1080p от CINEMANIA | НТВ+

Фильмы в формате WEBRip/Avi и т.д.
 Статистика раздачи 
Размер: 3.07 ГБ   |  Зарегистрирован: Февраль 17, 2014, 10:52 am   |   .torrent скачан: 80 раз
Сидеров: 36  [ 0 байт/сек ]   Личеров: 5  [ 0 байт/сек ]  

Короли Лондона / Lords of London / Lost in Italy (2013) WEB-DL 1080p от CINEMANIA | НТВ+

Сообщение Denny » Февраль 17, 2014, 10:52 am



Информация о фильме
Название: Короли Лондона
Оригинальное название: Lords of London / Lost in Italy
Год выхода: 2013
Жанр: триллер, детектив
Режиссер: Антонио Симончини
В ролях: Глен Мерфи, Рэй Уинстон, Джованни Капальбо, Серена Иансити, Кристофер Хатрэлл, Кассиус Теренс Мерфи, Глин Гримстед, Хелен Лэтэм, Джо Иган, Марк Адамс

О фильме:
Тони можно назвать потомственным гангстером: он с самого детства знал, что будет заниматься тем же, чем и отец. Сейчас Тони – мужчина средних лет, и у него есть серьезная проблема. Он проснулся в сельском домике в одной из итальянских деревушек, которая представляет собой замкнутый мирок и, кажется, практически не взаимодействует к окружающим миром. Тони понятия не имеет, как оказался здесь, почему его одежда испачкана кровью, где именно он находится и что произошло накануне.

Телефонов в деревушке нет, так что Тони не может связаться со своими «коллегами» или знакомыми и попросить помощи. Столкнувшись с мужчиной по имени Франческо и выслушав его историю, Тони чувствует с новым знакомым необъяснимую связь. То, что рассказал ему Франческо о своей семье и о ситуации, в которой она оказалась, Тони почему-то принимает близко к сердцу. Эта история полна насилия, крови и страха – того, к чему Тони давным-давно привык и от чего за многие годы успел устать.

Выпущено: Великобритания
Продолжительность: 01:32:07
Озвучивание: Профессиональное (двухголосое) [Нтв+]

Файл
Формат: MKV
Качество: WEB-DL 1080p [CrazyHD]
Видео: 4106 kb/s, 1908x800
Аудио: Russian: AC3, 192 kb/s (2 ch) / English: AC3, 384 kb/s (6 ch)
Дополнительно: Сохранены оригинальные чаптеры как на Blu-Ray
Размер: 3.07 Gb

Релиз группы:




Общее
Lords.Of.London.2013.WEB-DL.1080p.CINEMANIA.mkv
Формат : Matroska
Версия формата : Version 4 / Version 2
Размер файла : 3,07 Гбайт
Продолжительность : 1 ч. 32 м.
Общий поток : 4777 Кбит/сек
Название фильма : Release Group CINEMANIA
Дата кодирования : UTC 2014-02-15 15:08:45
Программа кодирования : mkvmerge v6.7.0 ('Back to the Ground') 64bit built on Jan 8 2014 15:10:52
Библиотека кодирования : libebml v1.3.0 + libmatroska v1.4.1

Видео
Идентификатор : 1
Формат : AVC
Формат/Информация : Advanced Video Codec
Профиль формата : High@L4.0
Параметр CABAC формата : Да
Параметр ReFrames формата : 5 кадров
Идентификатор кодека : V_MPEG4/ISO/AVC
Продолжительность : 1 ч. 32 м.
Битрейт : 4106 Кбит/сек
Ширина : 1908 пикселей
Высота : 800 пикселей
Соотношение сторон : 2,40:1
Режим частоты кадров : Постоянный
Частота кадров : 25,000 кадров/сек
Цветовое пространство : YUV
Субдискретизация насыщенности : 4:2:0
Битовая глубина : 8 бит
Тип развёртки : Прогрессивная
Бит/(Пиксели*Кадры) : 0.108
Размер потока : 2,64 Гбайт (86%)
Заголовок : Release Group CINEMANIA
Язык : English
Default : Да
Forced : Нет
Основные цвета : BT.709
Характеристики трансфера : BT.709
Коэффициенты матрицы : BT.709

Аудио #1
Идентификатор : 2
Формат : AC-3
Формат/Информация : Audio Coding 3
Расширение режима : CM (complete main)
Параметр Endianness формата : Big
Идентификатор кодека : A_AC3
Продолжительность : 1 ч. 32 м.
Вид битрейта : Постоянный
Битрейт : 192 Кбит/сек
Каналы : 2 канала
Расположение каналов : Front: L R
Частота : 48,0 КГц
Битовая глубина : 16 бит
Метод сжатия : С потерями
Размер потока : 127 Мбайт (4%)
Заголовок : Нтв+
Язык : Russian
Default : Да
Forced : Да

Аудио #2
Идентификатор : 3
Формат : AC-3
Формат/Информация : Audio Coding 3
Расширение режима : CM (complete main)
Параметр Endianness формата : Big
Идентификатор кодека : A_AC3
Продолжительность : 1 ч. 32 м.
Вид битрейта : Постоянный
Битрейт : 384 Кбит/сек
Каналы : 6 каналов
Расположение каналов : Front: L C R, Side: L R, LFE
Частота : 48,0 КГц
Битовая глубина : 16 бит
Метод сжатия : С потерями
Размер потока : 253 Мбайт (8%)
Язык : English
Default : Нет
Forced : Нет

Меню
00:00:00.000 : en:Chapter 1
00:07:00.000 : en:Chapter 2
00:15:24.000 : en:Chapter 3
00:21:04.000 : en:Chapter 4
00:27:42.000 : en:Chapter 5
00:35:47.000 : en:Chapter 6
00:47:59.000 : en:Chapter 7
00:54:30.000 : en:Chapter 8
01:05:34.000 : en:Chapter 9
01:11:50.000 : en:Chapter 10
01:21:32.000 : en:Chapter 11
01:30:06.000 : en:Chapter 12

   
Торрент: Зарегистрирован [Февраль 17, 2014, 10:52 am]
Видео WEBRip Скачать торрент Магнет ссылка Смотреть онлайн
Скачать торрент
[ Размер 15.95 КБ / Просмотров 12 ]
Статус:
Проверен
---
.torrent скачан: 80 раз
Приватный: Нет (DHT включён)
Размер: 3.07 ГБ (3 300 996 457)
   
Аватара пользователя
Denny
 
Раздал: 7.49 ТБ
Скачал: 807.97 ГБ
Ратио: 1007.499
Сообщения: 1934
Зарегистрирован: Ноябрь 19, 2012, 10:49 pm
Откуда: Россия

Флаг страны: Russia

Вернуться в Видео WEBRip



Кто сейчас на конференции

Сейчас эту тему просматривают: нет зарегистрированных пользователей и гости: 1

Ресурс не содержит никакой другой информации, кроме описаний отдельных файлов или их групп, имеющихся у некоторых пользователей данного ресурса. Подтверждением наличия данных файлов у пользователя может иногда являться специальный набор значений, представляющих собой результаты применения односторонних хеш-функций к этим файлам или их группам. Данные наборы значений объединяются пользователями в единое целое и могут быть выложены ими вместе с описаниями имеющихся у них файлов. Администрация данного ресурса не имеет физической возможности убедиться, что описания файлов, выложенные нашими пользователями, равно как и созданные ими наборы хешей от файлов, соответствуют реальным файлам имеющимся у пользователей, а не созданы каким-либо иным способом.
cron
Яндекс.Метрика