Безмолвный свидетель / Silent Witness / Quan Min Mu Ji (2013) HDTV 720p от CINEMANIA | L2

Не вошедшее ни в одну из категорий
 Статистика раздачи 
Размер: 4.39 ГБ   |  Зарегистрирован: Февраль 17, 2014, 11:36 am   |   .torrent скачан: 0 раз
Сидеров: 1  [ 0 байт/сек ]   Личеров: 0  [ 0 байт/сек ]  

Безмолвный свидетель / Silent Witness / Quan Min Mu Ji (2013) HDTV 720p от CINEMANIA | L2

Сообщение Denny » Февраль 17, 2014, 11:36 am



Информация о фильме
Название: Безмолвный свидетель
Оригинальное название: Silent Witness / Quan Min Mu Ji
Год выхода: 2013
Жанр: детектив, драма
Режиссер: Фэй Син
В ролях: Аарон Квок, Сунь Хон Лэй, Дэн Тья Тья, Ю Нань

О фильме:
В фильме рассказывается история дочери крупного промышленного магната, которая оказалась главной подозреваемой в убийстве молодой любовницы своего отца. Защитник девушки и прокурорские работники начали скрупулезную подготовку к затяжному процессу, когда неожиданно героиня дает признательные показания. Только на самом деле, она ли виновата в убийстве? А если не она, что тогда вынудило ее взять на себя тяжкое преступление?..

Выпущено: Китай
Продолжительность: 02:00:20
Озвучивание: Любительское (двухголосое) [DeadSno & den904]

Файл
Формат: MKV
Качество: HDTV 720p [dydoa]
Видео: 4835 kb/s, 1280х536
Аудио: Russian / Korean: AC3, 192 kb/s (2 ch)
Субтитры: Chinese and English (hardsub)
Размер: 4.39 GB

Релиз группы:



Общее
Silent.Witness.2013.HDTV.720p.CINEMANIA.mkv
Формат : Matroska
Версия формата : Version 4 / Version 2
Размер файла : 4,39 Гбайт
Продолжительность : 2 ч. 0 м.
Общий поток : 5221 Кбит/сек
Название фильма : Release Group CINEMANIA
Дата кодирования : UTC 2014-02-15 17:27:53
Программа кодирования : mkvmerge v6.7.0 ('Back to the Ground') 64bit built on Jan 8 2014 15:10:52
Библиотека кодирования : libebml v1.3.0 + libmatroska v1.4.1

Видео
Идентификатор : 1
Формат : AVC
Формат/Информация : Advanced Video Codec
Профиль формата : High@L4.1
Параметр CABAC формата : Да
Параметр ReFrames формата : 9 кадров
Идентификатор кодека : V_MPEG4/ISO/AVC
Продолжительность : 2 ч. 0 м.
Битрейт : 4835 Кбит/сек
Ширина : 1280 пикселей
Высота : 536 пикселей
Соотношение сторон : 2,40:1
Режим частоты кадров : Постоянный
Частота кадров : 24,000 кадра/сек
Цветовое пространство : YUV
Субдискретизация насыщенности : 4:2:0
Битовая глубина : 8 бит
Тип развёртки : Прогрессивная
Бит/(Пиксели*Кадры) : 0.294
Размер потока : 3,98 Гбайт (91%)
Заголовок : Release Group CINEMANIA
Библиотека кодирования : x264 core 140 r2377+40 929f149 tMod [8-bit@all X86_64]
Настройки программы : cabac=1 / ref=9 / deblock=1:-3:-3 / analyse=0x3:0x133 / me=umh / subme=9 / psy=1 / fade_compensate=0.00 / psy_rd=1.10:0.00 / mixed_ref=1 / me_range=32 / chroma_me=1 / trellis=2 / 8x8dct=1 / cqm=0 / deadzone=21,11 / fast_pskip=0 / chroma_qp_offset=-2 / threads=18 / lookahead_threads=2 / sliced_threads=0 / nr=0 / decimate=0 / interlaced=0 / bluray_compat=0 / constrained_intra=0 / fgo=0 / bframes=6 / b_pyramid=2 / b_adapt=2 / b_bias=0 / direct=3 / weightb=1 / open_gop=0 / weightp=2 / keyint=240 / keyint_min=24 / scenecut=40 / intra_refresh=0 / rc_lookahead=120 / rc=2pass / mbtree=1 / bitrate=4835 / ratetol=1.0 / qcomp=0.70 / qpmin=0:0:0 / qpmax=69:69:69 / qpstep=4 / cplxblur=20.0 / qblur=0.5 / vbv_maxrate=45000 / vbv_bufsize=35000 / nal_hrd=none / filler=0 / ip_ratio=1.10 / aq=1:0.90 / aq-sensitivity=10.00 / aq-factor=1.00:1.00:1.00 / aq2=0 / aq3=0
Default : Да
Forced : Нет

Аудио #1
Идентификатор : 2
Формат : AC-3
Формат/Информация : Audio Coding 3
Расширение режима : CM (complete main)
Параметр Endianness формата : Big
Идентификатор кодека : A_AC3
Продолжительность : 2 ч. 0 м.
Вид битрейта : Постоянный
Битрейт : 192 Кбит/сек
Каналы : 2 канала
Расположение каналов : Front: L R
Частота : 48,0 КГц
Битовая глубина : 16 бит
Метод сжатия : С потерями
Размер потока : 165 Мбайт (4%)
Заголовок : DeadSno and den904
Язык : Russian
Default : Да
Forced : Да

Аудио #2
Идентификатор : 3
Формат : AC-3
Формат/Информация : Audio Coding 3
Расширение режима : CM (complete main)
Параметр Endianness формата : Big
Идентификатор кодека : A_AC3
Продолжительность : 2 ч. 0 м.
Вид битрейта : Постоянный
Битрейт : 192 Кбит/сек
Каналы : 2 канала
Расположение каналов : Front: L R
Частота : 48,0 КГц
Битовая глубина : 16 бит
Метод сжатия : С потерями
Размер потока : 165 Мбайт (4%)
Язык : Chinese
Default : Нет
Forced : Нет

   
Торрент: Зарегистрирован [Февраль 17, 2014, 11:36 am]
Остальное Скачать торрент Магнет ссылка
Скачать торрент
[ Размер 22.51 КБ / Просмотров 7 ]
Статус:
Проверен
---
.torrent скачан: 0 раз
Приватный: Нет (DHT включён)
Размер: 4.39 ГБ (4 712 504 731)
   
Аватара пользователя
Denny
 
Раздал: 7.49 ТБ
Скачал: 807.97 ГБ
Ратио: 1007.499
Сообщения: 1934
Зарегистрирован: Ноябрь 19, 2012, 10:49 pm
Откуда: Россия

Флаг страны: Russia

Вернуться в Остальное



Кто сейчас на конференции

Сейчас эту тему просматривают: нет зарегистрированных пользователей и гости: 1

Ресурс не содержит никакой другой информации, кроме описаний отдельных файлов или их групп, имеющихся у некоторых пользователей данного ресурса. Подтверждением наличия данных файлов у пользователя может иногда являться специальный набор значений, представляющих собой результаты применения односторонних хеш-функций к этим файлам или их группам. Данные наборы значений объединяются пользователями в единое целое и могут быть выложены ими вместе с описаниями имеющихся у них файлов. Администрация данного ресурса не имеет физической возможности убедиться, что описания файлов, выложенные нашими пользователями, равно как и созданные ими наборы хешей от файлов, соответствуют реальным файлам имеющимся у пользователей, а не созданы каким-либо иным способом.
cron
Яндекс.Метрика