Возвращение в "А" (2011) TVRip

Фильмы в формате DVD
 Статистика раздачи 
Размер: 1.46 ГБ   |  Зарегистрирован: Февраль 18, 2014, 5:54 pm   |   .torrent скачан: 1 раз
Сидеров: 33  [ 0 байт/сек ]   Личеров: 1  [ 0 байт/сек ]  

Возвращение в "А" (2011) TVRip

Сообщение Denny » Февраль 18, 2014, 6:00 pm



Информация о фильме
Оригинальное название: Возвращение в "А"
Год выхода: 2011
Жанр: Драма, военный
Режиссер: Егор Кончаловский
В ролях: Сейдулла Молдаханов, Берик Айтжанов, Наталья Аринбасарова, Гульнара Дусматова, Иван Жидков, Гоша Куценко, Аша Матай, Карлыгаш Мухамеджанова, Денис Никифоров, Андрей Шибаршин

О фильме: Группа российских телевизионщиков и казахстанских кинематографов отправляется в рискованное путешествие из Алматы в Афганистан для съемок документального кино «По дорогам Александра Македонского». Их сопровождает человек, некогда воевавший на землях Афгана и потерявший ногу в ходе боевых действий — Марат Аюмов. Он хорошо владеет фарси, знаком с обычаями, традициями и афганскими «законами». Но никто не знает, что он служил в составе мусульманского батальона спецназа ГРУ СССР под командованием легенды афганской войны «Кара Майора» и что у него есть и свои личные причины вернуться в Афганистан…

Страна: Россия, Казахстан
Студия: Студия Казахфильм
Продолжительность: 01:49:27
Язык: Русский

Файл
Тип релиза: AVI
Видео: XviD, 1706 Кбит/с, 688х368
Аудио: АС3, 2 ch, 192 Кбит/с


Общее
Полное имя : Возвращение в А.avi
Формат : AVI
Формат/Информация : Audio Video Interleave
Размер файла : 1,46 Гбайт
Продолжительность : 1 ч. 49 м.
Общий поток : 1904 Кбит/сек
Программа кодирования : VirtualDubMod 1.5.10.3 | http://www.virtualdub-fr.org || (build 2550/release)
Библиотека кодирования : VirtualDubMod build 2550/release

Видео
Идентификатор : 0
Формат : MPEG-4 Visual
Профиль формата : Advanced Simple@L5
Параметр BVOP формата : 2
Параметр QPel формата : Нет
Параметр GMC формата : Без точки перехода
Параметр матрицы формата : Default (MPEG)
Режим смешивания : Сжатый битовый поток
Идентификатор кодека : XVID
Идентификатор кодека/Подсказка : XviD
Продолжительность : 1 ч. 49 м.
Битрейт : 1703 Кбит/сек
Ширина : 688 пикселей
Высота : 368 пикселей
Соотношение сторон : 1,85:1
Частота кадров : 23,976 кадра/сек
Цветовое пространство : YUV
Субдискретизация насыщенности : 4:2:0
Битовая глубина : 8 бит
Тип развёртки : Прогрессивная
Метод сжатия : С потерями
Бит/(Пиксели*Кадры) : 0.281
Размер потока : 1,30 Гбайт (89%)
Библиотека кодирования : XviD 1.2.1 (UTC 2008-12-04)

Аудио
Идентификатор : 1
Формат : AC-3
Формат/Информация : Audio Coding 3
Расширение режима : CM (complete main)
Параметр Endianness формата : Big
Идентификатор кодека : 2000
Продолжительность : 1 ч. 49 м.
Вид битрейта : Постоянный
Битрейт : 192 Кбит/сек
Каналы : 2 канала
Расположение каналов : Front: L R
Частота : 48,0 КГц
Битовая глубина : 16 бит
Метод сжатия : С потерями
Размер потока : 150 Мбайт (10%)
Выравнивание : Разделение по промежуткам
Продолжительность промежутка : 42 мс. (1,00 видеокадр)
Время предзагрузки промежутка : 500 мс.

   
Торрент: Зарегистрирован [Февраль 18, 2014, 5:54 pm]
Видео DVD Скачать торрент Магнет ссылка Смотреть онлайн
Скачать торрент
[ Размер 16.4 КБ / Просмотров 16 ]
Статус:
Проверен
---
.torrent скачан: 1 раз
Приватный: Нет (DHT включён)
Размер: 1.46 ГБ (1 563 265 024)
   
Аватара пользователя
Denny
 
Раздал: 7.49 ТБ
Скачал: 807.97 ГБ
Ратио: 1007.499
Сообщения: 1934
Зарегистрирован: Ноябрь 19, 2012, 10:49 pm
Откуда: Россия

Флаг страны: Russia

Вернуться в Видео DVD



Кто сейчас на конференции

Сейчас эту тему просматривают: нет зарегистрированных пользователей и гости: 1

Ресурс не содержит никакой другой информации, кроме описаний отдельных файлов или их групп, имеющихся у некоторых пользователей данного ресурса. Подтверждением наличия данных файлов у пользователя может иногда являться специальный набор значений, представляющих собой результаты применения односторонних хеш-функций к этим файлам или их группам. Данные наборы значений объединяются пользователями в единое целое и могут быть выложены ими вместе с описаниями имеющихся у них файлов. Администрация данного ресурса не имеет физической возможности убедиться, что описания файлов, выложенные нашими пользователями, равно как и созданные ими наборы хешей от файлов, соответствуют реальным файлам имеющимся у пользователей, а не созданы каким-либо иным способом.
cron
Яндекс.Метрика