Синдром Шахматиста [01-04 из 4] (2014) DVDRip от NovaLan

Отечественные и зарубежные сериалы
 Статистика раздачи 
Размер: 1.96 ГБ   |  Зарегистрирован: Март 8, 2014, 7:06 pm   |   .torrent скачан: 44 раз
Сидеров: 11  [ 0 байт/сек ]   Личеров: 1  [ 0 байт/сек ]  

Синдром Шахматиста [01-04 из 4] (2014) DVDRip от NovaLan

Сообщение Denny » Март 8, 2014, 7:06 pm


Страна: Россия
Производство: Berg Sound
Жанр: Боевик
Год выпуска: 2014

Продолжительность: 4 х 00:46:00
Язык: Русский

Режиссер: Карен Адамян
В ролях: Юрий Кормушин, Марина Вайнбранд, Влад Канопка, Анастасия Сметанина, Олег Шкловский, Павел Кузьмин, Вячеслав Кулаков, Михаил Хмуров, Леонид Евтифьев, Владимир Стеклов
Описание: В российском городе Торбинске происходит цепь загадочных убийств среди криминальных авторитетов. По слухам и разговорам за этими убийствами стоит загадочная личность «Шахматист», но никто его не знает и никогда не видел. И полиция и весь криминальный мир Торбинска ищут этого самого «Шахматиста». В это же время в город приезжает Влад Артемьев — преподаватель истории Востока и мастер восточных боевых искусств. В силу ряда причин подозрение падает на него. Чтобы доказать свою невиновность и найти истинного «Шахматиста» Влад скрывается и начинает собственные поиски. В этом ему помогают студентка Кристина и компьютерный гений Ульяна. В результате многочисленных перипетий Владу удается найти и обезвредить «Шахматиста» и тем самым доказать свою непричастность к происходящим в городе беспорядкам.

Исходник: DVD9 R5

Тип релиза: DVDRip

Контейнер: AVI
Видео: XviD, ~ 1318 Кбит/с, 720х400
Аудио: АС3, 2 ch, 192 Кбит/с
Общее
Полное имя : СИНДРОМ ШАХМАТИСТА1 серия.avi
Формат : AVI
Формат/Информация : Audio Video Interleave
Размер файла : 501 Мбайт
Продолжительность : 46 м.
Общий поток : 1516 Кбит/сек
Программа кодирования : VirtualDubMod 1.5.10.3 | http://www.virtualdub-fr.org || (build 2550/release)
Библиотека кодирования : VirtualDubMod build 2550/release

Видео
Идентификатор : 0
Формат : MPEG-4 Visual
Профиль формата : Advanced Simple@L5
Параметр BVOP формата : 2
Параметр QPel формата : Нет
Параметр GMC формата : Без точки перехода
Параметр матрицы формата : Default (MPEG)
Режим смешивания : Сжатый битовый поток
Идентификатор кодека : XVID
Идентификатор кодека/Подсказка : XviD
Продолжительность : 46 м.
Битрейт : 1315 Кбит/сек
Ширина : 720 пикселей
Высота : 400 пикселей
Соотношение сторон : 16:9
Частота кадров : 23,976 кадра/сек
Цветовое пространство : YUV
Субдискретизация насыщенности : 4:2:0
Битовая глубина : 8 бит
Тип развёртки : Прогрессивная
Метод сжатия : С потерями
Бит/(Пиксели*Кадры) : 0.190
Размер потока : 435 Мбайт (87%)
Библиотека кодирования : XviD 1.2.1 (UTC 2008-12-04)

Аудио
Идентификатор : 1
Формат : AC-3
Формат/Информация : Audio Coding 3
Расширение режима : CM (complete main)
Параметр Endianness формата : Big
Идентификатор кодека : 2000
Продолжительность : 46 м.
Вид битрейта : Постоянный
Битрейт : 192 Кбит/сек
Каналы : 2 канала
Расположение каналов : Front: L R
Частота : 48,0 КГц
Битовая глубина : 16 бит
Метод сжатия : С потерями
Размер потока : 63,5 Мбайт (13%)
Выравнивание : Разделение по промежуткам
Продолжительность промежутка : 42 мс. (1,00 видеокадр)
Время предзагрузки промежутка : 500 мс.


   
Торрент: Зарегистрирован [Март 8, 2014, 7:06 pm]
Сериалы Скачать торрент Магнет ссылка Смотреть онлайн
Скачать торрент
[ Размер 20.33 КБ / Просмотров 20 ]
Статус:
Проверен
---
.torrent скачан: 44 раз
Приватный: Нет (DHT включён)
Размер: 1.96 ГБ (2 104 594 432)
   
Аватара пользователя
Denny
 
Раздал: 7.49 ТБ
Скачал: 807.97 ГБ
Ратио: 1007.499
Сообщения: 1934
Зарегистрирован: Ноябрь 19, 2012, 10:49 pm
Откуда: Россия

Флаг страны: Russia

  • Похожие торренты
    Ответы
    Просмотры
    Последнее сообщение

Вернуться в Сериалы



Кто сейчас на конференции

Сейчас эту тему просматривают: нет зарегистрированных пользователей и гости: 1

Ресурс не содержит никакой другой информации, кроме описаний отдельных файлов или их групп, имеющихся у некоторых пользователей данного ресурса. Подтверждением наличия данных файлов у пользователя может иногда являться специальный набор значений, представляющих собой результаты применения односторонних хеш-функций к этим файлам или их группам. Данные наборы значений объединяются пользователями в единое целое и могут быть выложены ими вместе с описаниями имеющихся у них файлов. Администрация данного ресурса не имеет физической возможности убедиться, что описания файлов, выложенные нашими пользователями, равно как и созданные ими наборы хешей от файлов, соответствуют реальным файлам имеющимся у пользователей, а не созданы каким-либо иным способом.
cron
Яндекс.Метрика