Discovery: Магия Бена Эрла. Преступление / Ben Earl Trick Artist. Crime (2014) SATRip | P1

Телевизионные передачи, ТВ фильмы
 Статистика раздачи 
Размер: 396.45 МБ   |  Зарегистрирован: Март 22, 2014, 6:36 pm   |   .torrent скачан: 21 раз
Сидеров: 30  [ 0 байт/сек ]   Личеров: 0  [ 0 байт/сек ]  

Discovery: Магия Бена Эрла. Преступление / Ben Earl Trick Artist. Crime (2014) SATRip | P1

Сообщение Denny » Март 22, 2014, 6:36 pm



Информация о фильме
Название: Discovery: Магия Бена Эрла. Преступление / Ben Earl Trick Artist. Crime
Год выпуска: 2014
Жанр: ТВ-Шоу


Описание:
Бен Эрл — звезда нового магического шоу. Очевидно, что Бен сразу становится конкурентом уже супер популярному Динамо и ему необходимо что-то необычное, чтобы создать свежий образ и не исчезнуть в тени легенд телевизионной магии: Блейна, Энджела, Динамо.
Бен собирается продемонстрировать шулерские техники, эскапизм и далеко не безопасные трюки, такие как, например, ловля пули ртом. «Сюжет шоу — это микс из искусства, науки, криминала и денег — начинаем мы с криминала. Много идей, которые мы воплотили в жизнь, пришли к нам из кино и книг, поэтому будут сумасшедшие вещи» — сказал Бен в одном из интервью. В частности, Бен повторит прыжок с крыши, исполненный Бенедиктом Камбербатчем в сериале «Шерлок».



Продолжительность: 00:44:00
Выпущено:
Перевод: Профессиональный (одноголосый, закадровый)
Автор рипа: vn_tuzhilin
Файл
Формат: AVI
Качество: SATRip
Видео: XviD, ~1122 kb/s, 704x400
Аудио: MP3, 2 ch, 128 Кбит/c

Формат : AVI
Формат/Информация : Audio Video Interleave
Размер файла : 396 Мбайт
Продолжительность : 44 м.
Общий поток : 1260 Кбит/сек
Программа кодирования : VirtualDubMod 1.5.10.2 (build 2540/release)
Библиотека кодирования : VirtualDubMod build 2540/release
Видео
Идентификатор : 0
Формат : MPEG-4 Visual
Профиль формата : Advanced Simple@L5
Параметр BVOP формата : 1
Параметр QPel формата : Нет
Параметр GMC формата : Без точки перехода
Параметр матрицы формата : Default (H.263)
Идентификатор кодека : XVID
Идентификатор кодека/Подсказка : XviD
Продолжительность : 44 м.
Битрейт : 1122 Кбит/сек
Ширина : 704 пикселя
Высота : 400 пикселей
Соотношение сторон : 16:9
Частота кадров : 25,000 кадров/сек
Цветовое пространство : YUV
Субдискретизация насыщенности : 4:2:0
Битовая глубина : 8 бит
Тип развёртки : Прогрессивная
Метод сжатия : С потерями
Бит/(Пиксели*Кадры) : 0.159
Размер потока : 353 Мбайт (89%)
Библиотека кодирования : XviD 1.2.1 (UTC 2008-12-04)
Аудио
Идентификатор : 1
Формат : MPEG Audio
Версия формата : Version 1
Профиль формата : Layer 3
Идентификатор кодека : 55
Идентификатор кодека/Подсказка : MP3
Продолжительность : 44 м.
Вид битрейта : Постоянный
Битрейт : 128 Кбит/сек
Каналы : 2 канала
Частота : 44,1 КГц
Метод сжатия : С потерями
Размер потока : 40,3 Мбайт (10%)
Выравнивание : Разделение по промежуткам
Продолжительность промежутка : 40 мс. (1,00 видеокадр)
Время предзагрузки промежутка : 500 мс.
Библиотека кодирования : LAME3.98r
Настройки программы : -m s -V 4 -q 2 -lowpass 17 -b 128



   
Торрент: Зарегистрирован [Март 22, 2014, 6:36 pm]
Телевидение Скачать торрент Магнет ссылка Смотреть онлайн
Скачать торрент
[ Размер 16.04 КБ / Просмотров 11 ]
Статус:
Проверен
---
.torrent скачан: 21 раз
Приватный: Нет (DHT включён)
Размер: 396.45 МБ (415 705 088)
   
Аватара пользователя
Denny
 
Раздал: 7.49 ТБ
Скачал: 807.97 ГБ
Ратио: 1007.499
Сообщения: 1934
Зарегистрирован: Ноябрь 19, 2012, 10:49 pm
Откуда: Россия

Флаг страны: Russia

Вернуться в Телевидение



Кто сейчас на конференции

Сейчас эту тему просматривают: нет зарегистрированных пользователей и гости: 1

Ресурс не содержит никакой другой информации, кроме описаний отдельных файлов или их групп, имеющихся у некоторых пользователей данного ресурса. Подтверждением наличия данных файлов у пользователя может иногда являться специальный набор значений, представляющих собой результаты применения односторонних хеш-функций к этим файлам или их группам. Данные наборы значений объединяются пользователями в единое целое и могут быть выложены ими вместе с описаниями имеющихся у них файлов. Администрация данного ресурса не имеет физической возможности убедиться, что описания файлов, выложенные нашими пользователями, равно как и созданные ими наборы хешей от файлов, соответствуют реальным файлам имеющимся у пользователей, а не созданы каким-либо иным способом.
cron
Яндекс.Метрика