Знак 2: Искупление / The Mark: Redemption (Джеймс Чэнкин / James Chankin) [2013, США, боевик, DVDRip] VO (Хэм)

Фильмы в формате DVD
 Статистика раздачи 
Размер: 703.07 МБ   |  Зарегистрирован: Апрель 12, 2014, 11:40 am   |   .torrent скачан: 1 раз
Сидеров: 13  [ 0 байт/сек ]   Личеров: 37  [ 0 байт/сек ]  

Знак 2: Искупление / The Mark: Redemption (Джеймс Чэнкин / James Chankin) [2013, США, боевик, DVDRip] VO (Хэм)

Сообщение Denny » Апрель 12, 2014, 11:40 am



Знак 2: Искупление / The Mark: Redemption

Страна: США
Жанр: боевик
Год выпуска: 2013
Продолжительность: 01:34:08
Перевод: Одноголосый закадровый (Хэм)
Cубтитры: нет
Режиссер: Джеймс Чэнкин / James Chankin
В ролях: Крэйг Шеффер, Соня Кулинг, Гэри Дэниелс, Иван Камараш, Эрик Робертс

Описание: Беготня за чипом от "Аванти" продолжается. Купер попадает в руки Пайка, Пайк собирает команду спецов и компьютерщиков, чтобы выследить Тёрнера в Бангкоке, а сам Тёрнер с подругой-стюардессой пытается найти доктора, занимавшегося разработкой чипа. Тем временем в условиях мирового кризиса Тарк подминает под себя ООН и превращается в "спасителя человечества".

Качество видео: DVDRip
Формат видео: AVI
Видео: XVID, 720x384, 1,85:1, 23,976 fps, 907 kbps
Аудио: MP3, 48 kHz, 128 kbps, 2.0

General
Complete name : The.Mark.Redemption.2013.Rus.avi
Format : AVI
Format/Info : Audio Video Interleave
File size : 703 MiB
Duration : 1h 34mn
Overall bit rate : 1 044 Kbps
Writing library : VirtualDub build 32817/release
Video
ID : 0
Format : MPEG-4 Visual
Format profile : Advanced Simple@L5
Format settings, BVOP : 2
Format settings, QPel : No
Format settings, GMC : No warppoints
Format settings, Matrix : Default (H.263)
Codec ID : XVID
Codec ID/Hint : XviD
Duration : 1h 34mn
Bit rate : 907 Kbps
Width : 720 pixels
Height : 384 pixels
Display aspect ratio : 1.85:1
Frame rate : 23.976 fps
Color space : YUV
Chroma subsampling : 4:2:0
Bit depth : 8 bits
Scan type : Progressive
Compression mode : Lossy
Bits/(Pixel*Frame) : 0.137
Stream size : 611 MiB (87%)
Writing library : XviD 1.2.1 (UTC 2008-12-04)
Audio
ID : 1
Format : MPEG Audio
Format version : Version 1
Format profile : Layer 3
Mode : Joint stereo
Mode extension : MS Stereo
Codec ID : 55
Codec ID/Hint : MP3
Duration : 1h 34mn
Bit rate mode : Constant
Bit rate : 128 Kbps
Channel(s) : 2 channels
Sampling rate : 48.0 KHz
Compression mode : Lossy
Stream size : 86.2 MiB (12%)
Alignment : Split accross interleaves
Interleave, duration : 42 ms (1.00 video frame)
Interleave, preload duration : 500 ms



   
Торрент: Зарегистрирован [Апрель 12, 2014, 11:40 am]
Видео DVD Скачать торрент Магнет ссылка Смотреть онлайн
Скачать торрент
[ Размер 14.34 КБ / Просмотров 7 ]
Статус:
Проверен
---
.torrent скачан: 1 раз
Приватный: Нет (DHT включён)
Размер: 703.07 МБ (737 223 050)
   
Аватара пользователя
Denny
 
Раздал: 7.49 ТБ
Скачал: 807.97 ГБ
Ратио: 1007.499
Сообщения: 1934
Зарегистрирован: Ноябрь 19, 2012, 10:49 pm
Откуда: Россия

Флаг страны: Russia

  • Похожие торренты
    Ответы
    Просмотры
    Последнее сообщение

Вернуться в Видео DVD



Кто сейчас на конференции

Сейчас эту тему просматривают: нет зарегистрированных пользователей и гости: 1

Ресурс не содержит никакой другой информации, кроме описаний отдельных файлов или их групп, имеющихся у некоторых пользователей данного ресурса. Подтверждением наличия данных файлов у пользователя может иногда являться специальный набор значений, представляющих собой результаты применения односторонних хеш-функций к этим файлам или их группам. Данные наборы значений объединяются пользователями в единое целое и могут быть выложены ими вместе с описаниями имеющихся у них файлов. Администрация данного ресурса не имеет физической возможности убедиться, что описания файлов, выложенные нашими пользователями, равно как и созданные ими наборы хешей от файлов, соответствуют реальным файлам имеющимся у пользователей, а не созданы каким-либо иным способом.
cron
Яндекс.Метрика