Бернард / Bernard [S01] (2006) DVDRip-AVC

Мультфильмы
 Статистика раздачи 
Размер: 1.54 ГБ   |  Зарегистрирован: Апрель 14, 2014, 6:18 am   |   .torrent скачан: 11 раз
Сидеров: 26  [ 0 байт/сек ]   Личеров: 3  [ 0 байт/сек ]  

Бернард / Bernard [S01] (2006) DVDRip-AVC

Сообщение sergey » Апрель 14, 2014, 6:18 am

Название: Бернард
Оригинальное название: Bernard
Год выхода: 2006
Жанр: Комедия, короткометражный мультфильм
Режиссер: Клаудио Бьерн Лливирья, Хосе Луис Уча
В ролях: Медвед Bernard, Ящерка, Собачка, Гвинпин и др.

О фильме:
Бернард - полярный медведь.
Бернард обожает приключения и путеществия, но постоянно влипает в одни только неприятности.
Природная любознательность и упрямство превращает любое дело, за которое он ни возмется Бернард, в сложное и опасное испытание.
Невероятно смешной мультсериал о похождениях самого нелепого и смешного медведя в мире заставляет смеяться до слез.
Бернард обожает спорт. Вечер в тренажерном зале и партия в гольф для начала, а потом фантастическое восхождение на снежную вершину.
Неутомимый Бернард готов к приключениям всегда - ведь даже просто покататься на качелях ему не удается без неприятностей.

Страна: Франция / Испания / Южная Корея
Продолжительность: 52 серии по 03:30
Перевод: Не требуется

Кодек: x264
Качество: DVDRip AVC
Видео: 720x576 (SAR 1024x576), ~ 1000 kbps, 25 fps
Звук: 48 kHz, AC3 Dolby Digital, 2/0 (L,R) ch, 192.00 kbps

Video
ID : 1
Format : AVC
Format/Info : Advanced Video Codec
Format profile : High@L4.0
Format settings, CABAC : Yes
Format settings, ReFrames : 16 frames
Format settings, GOP : N=1
Codec ID : V_MPEG4/ISO/AVC
Duration : 3mn 31s
Bit rate : 780 Kbps
Width : 720 pixels
Height : 576 pixels
Display aspect ratio : 16:9
Frame rate : 25.000 fps
Standard : PAL
Color space : YUV
Chroma subsampling : 4:2:0
Bit depth : 8 bits
Scan type : Progressive
Bits/(Pixel*Frame) : 0.075
Stream size : 19.1 MiB (78%)
Writing library : x264 core 133 r2334 a3ac64b
Encoding settings : cabac=1 / ref=16 / deblock=1:0:0 / analyse=0x3:0x133 / me=umh / subme=11 / psy=1 / psy_rd=0.00:0.00 / mixed_ref=1 / me_range=25 / chroma_me=1 / trellis=2 / 8x8dct=1 / cqm=0 / deadzone=21,11 / fast_pskip=0 / chroma_qp_offset=0 / threads=6 / lookahead_threads=1 / sliced_threads=0 / nr=0 / decimate=0 / interlaced=0 / bluray_compat=0 / constrained_intra=0 / bframes=12 / b_pyramid=2 / b_adapt=2 / b_bias=0 / direct=3 / weightb=1 / open_gop=0 / weightp=2 / keyint=250 / keyint_min=25 / scenecut=40 / intra_refresh=0 / rc_lookahead=60 / rc=2pass / mbtree=0 / bitrate=780 / ratetol=1.0 / qcomp=0.60 / qpmin=0 / qpmax=69 / qpstep=4 / cplxblur=20.0 / qblur=0.5 / vbv_maxrate=2500 / vbv_bufsize=2500 / nal_hrd=none / ip_ratio=1.40 / pb_ratio=1.30 / aq=2:1.00
Color primaries : BT.470-6 System B, BT.470-6 System G, BT.601-6 625, BT.1358 625, BT.1700 625 PAL, BT.1700 625 SECAM
Transfer characteristics : BT.470-6 System B, BT.470-6 System G
Matrix coefficients : BT.470-6 System B, BT.470-6 System G, BT.601-6 625, BT.1358 625, BT.1700 625 PAL, BT.1700 625 SECAM, IEC 61966-2-4 601

Audio
ID : 2
Format : AC-3
Format/Info : Audio Coding 3
Mode extension : CM (complete main)
Codec ID : A_AC3
Duration : 3mn 31s
Bit rate mode : Constant
Bit rate : 192 Kbps
Channel(s) : 2 channels
Channel positions : Front: L R
Sampling rate : 48.0 KHz
Bit depth : 16 bits
Compression mode : Lossy
Stream size : 4.84 MiB (20%)
x264 [info]: frame I:31 Avg QP:13.81 size: 75407
x264 [info]: frame P:1383 Avg QP:17.66 size: 9717
x264 [info]: frame B:3868 Avg QP:18.41 size: 1221
   
Торрент: Зарегистрирован [Апрель 14, 2014, 6:18 am]
Мультфильмы Скачать торрент Магнет ссылка Смотреть онлайн
Скачать торрент
[ Размер 18.87 КБ / Просмотров 7 ]
Статус:
Проверен
---
.torrent скачан: 11 раз
Приватный: Нет (DHT включён)
Размер: 1.54 ГБ (1 654 250 844)
   
Аватара пользователя
sergey
 
Раздал: 42.54 ТБ
Скачал: 198.69 ГБ
Ратио: 265.234
Сообщения: 5347
Зарегистрирован: Август 6, 2012, 2:11 pm
Откуда: СССР

Флаг страны: СССР

Вернуться в Мультфильмы



Кто сейчас на конференции

Сейчас эту тему просматривают: нет зарегистрированных пользователей и гости: 1

Ресурс не содержит никакой другой информации, кроме описаний отдельных файлов или их групп, имеющихся у некоторых пользователей данного ресурса. Подтверждением наличия данных файлов у пользователя может иногда являться специальный набор значений, представляющих собой результаты применения односторонних хеш-функций к этим файлам или их группам. Данные наборы значений объединяются пользователями в единое целое и могут быть выложены ими вместе с описаниями имеющихся у них файлов. Администрация данного ресурса не имеет физической возможности убедиться, что описания файлов, выложенные нашими пользователями, равно как и созданные ими наборы хешей от файлов, соответствуют реальным файлам имеющимся у пользователей, а не созданы каким-либо иным способом.
cron
Яндекс.Метрика