Кунг-фу Панда: Дилогия / Kung Fu Panda: Dilogy (2008-2011) BDRip 720p от NoLimits-Team

Мультфильмы
 Статистика раздачи 
Размер: 8.74 ГБ   |  Зарегистрирован: Апрель 18, 2014, 5:36 pm   |   .torrent скачан: 11 раз
Сидеров: 15  [ 0 байт/сек ]   Личеров: 4  [ 0 байт/сек ]  

Кунг-фу Панда: Дилогия / Kung Fu Panda: Dilogy (2008-2011) BDRip 720p от NoLimits-Team

Сообщение Denny » Апрель 18, 2014, 5:36 pm



Кунг-фу Панда: Дилогия / Kung Fu Panda: Dilogy (2008-2011) BDRip 720p от NoLimits-Team

Информация о фильме
Название: Кунг-фу Панда: Дилогия
Оригинальное название: Kung Fu Panda: Dilogy
Год выхода: 2008 | 2011
Жанр: Боевик, Комедия, Приключения, Семейный
Режиссер: Марк Осборн, Джон Стивенсон, Дженнифер Ю
Продолжительность: 01:32:09 | 01:30:23
Релиз Группа | Автор Рипа:





Информация о фильме
    Название: Кунг-фу Панда
    Оригинальное название: Kung Fu Panda
    Год выхода: 2008
    Жанр: Боевик, Комедия, Приключения, Семейный
    Режиссер: Марк Осборн, Джон Стивенсон
    Выпущено: США
    Продолжительность: 01:32:09
    Перевод: Дублированный
    В ролях: Джек Блэк, Дастин Хоффман, Анджелина Джоли, Иэн МакШейн, Джеки Чан, Сет Роген, Люси Лью, Дэвид Кросс, Рэндолл Дак Ким, Джеймс Хонг


Сюжет фильма
    Спасение Долины Мира и всех ее обитателей от непобедимого и безжалостного мастера Тай Лунга должно лечь на плечи Воина Дракона, Избранного среди лучших из лучших, коим становится... неуклюжий, ленивый и вечно голодный панда По.Ему предстоит долгий и трудный путь к вершинам мастерства кунг-фу бок о бок с легендарными воинами: Тигрой, Обезьяной, Богомолом, Гадюкой и Журавлем. По постигнет тайну древнего Свитка и станет Воином Дракона только в том случае, если сможет поверить в себя...


Файл
    Качество: BDRip 720p (DVD5) (исходник Blu-Ray Disc)
    Видео: 1280x544, 5504 Кбит/сек, 23,976 кадр/сек, AVC, x264, High@L4.1, 2.35:1, 0.330 Бит/[Пиксели*Кадры], 2pass
    Аудио 1: AC-3, 640 Кбит/сек, 6 канала(ов), 48,0 КГц - Дублированный / Русский
    Аудио 2: AC-3, 640 Кбит/сек, 6 канала(ов), 48,0 КГц - Оригинал / Английский
    Субтитры: Русские | Полные
    Чаптеры: Есть



Релиз Группа | Автор Рипа:



Format : Matroska
Format version : Version 4 / Version 2
File size : 4.37 GiB
Duration : 1h 32mn
Overall bit rate : 6 786 Kbps
Movie name : Кунг-фу Панда.(2008).BDRip.720p.(DVD5).[NoLimits-Team]
Encoded date : UTC 2013-05-22 11:50:18
Writing application : mkvmerge v6.0.0 ('Coming Up For Air') built on Jan 20 2013 09:52:00
Writing library : libebml v1.3.0 + libmatroska v1.4.0

Video
ID : 1
Format : AVC
Format/Info : Advanced Video Codec
Format profile : High@L4.1
Format settings, CABAC : Yes
Format settings, ReFrames : 12 frames
Codec ID : V_MPEG4/ISO/AVC
Duration : 1h 32mn
Bit rate : 5 504 Kbps
Width : 1 280 pixels
Height : 544 pixels
Display aspect ratio : 2.35:1
Frame rate mode : Constant
Frame rate : 23.976 fps
Color space : YUV
Chroma subsampling : 4:2:0
Bit depth : 8 bits
Scan type : Progressive
Bits/(Pixel*Frame) : 0.330
Stream size : 3.46 GiB (79%)
Title : Кунг-фу Панда.(2008).BDRip.720p.(DVD5).[NoLimits-Team]
Writing library : x264 core 132 r2310 76a5c3a
Encoding settings : cabac=1 / ref=12 / deblock=1:0:0 / analyse=0x3:0x133 / me=umh / subme=11 / psy=1 / psy_rd=1.00:0.00 / mixed_ref=1 / me_range=64 / chroma_me=1 / trellis=2 / 8x8dct=1 / cqm=0 / deadzone=21,11 / fast_pskip=0 / chroma_qp_offset=-2 / threads=9 / lookahead_threads=2 / sliced_threads=0 / nr=0 / decimate=1 / interlaced=0 / bluray_compat=0 / constrained_intra=0 / bframes=14 / b_pyramid=2 / b_adapt=2 / b_bias=0 / direct=3 / weightb=1 / open_gop=0 / weightp=2 / keyint=240 / keyint_min=23 / scenecut=40 / intra_refresh=0 / rc_lookahead=60 / rc=2pass / mbtree=1 / bitrate=5504 / ratetol=1.0 / qcomp=0.60 / qpmin=0 / qpmax=69 / qpstep=4 / cplxblur=20.0 / qblur=0.5 / ip_ratio=1.40 / aq=1:1.00
Language : English
Default : Yes
Forced : No

Audio #1
ID : 2
Format : AC-3
Format/Info : Audio Coding 3
Mode extension : CM (complete main)
Format settings, Endianness : Big
Codec ID : A_AC3
Duration : 1h 32mn
Bit rate mode : Constant
Bit rate : 640 Kbps
Channel(s) : 6 channels
Channel positions : Front: L C R, Side: L R, LFE
Sampling rate : 48.0 KHz
Bit depth : 16 bits
Compression mode : Lossy
Stream size : 422 MiB (9%)
Title : Дублированный
Language : Russian
Default : Yes
Forced : No

Audio #2
ID : 3
Format : AC-3
Format/Info : Audio Coding 3
Mode extension : CM (complete main)
Format settings, Endianness : Big
Codec ID : A_AC3
Duration : 1h 32mn
Bit rate mode : Constant
Bit rate : 640 Kbps
Channel(s) : 6 channels
Channel positions : Front: L C R, Side: L R, LFE
Sampling rate : 48.0 KHz
Bit depth : 16 bits
Compression mode : Lossy
Stream size : 422 MiB (9%)
Title : Английский
Language : English
Default : No
Forced : No

Text
ID : 4
Format : UTF-8
Codec ID : S_TEXT/UTF8
Codec ID/Info : UTF-8 Plain Text
Title : Русские (полные)
Language : Russian
Default : No
Forced : No

Menu
00:00:00.000 : :Chapter 01
00:02:31.401 : :Chapter 02
00:05:17.066 : :Chapter 03
00:07:58.895 : :Chapter 04
00:10:41.932 : :Chapter 05
00:16:39.331 : :Chapter 06
00:19:28.500 : :Chapter 07
00:22:41.651 : :Chapter 08
00:26:19.869 : :Chapter 09
00:31:13.872 : :Chapter 10
00:35:26.123 : :Chapter 11
00:38:35.604 : :Chapter 12
00:42:34.760 : :Chapter 13
00:45:45.909 : :Chapter 14
00:51:29.711 : :Chapter 15
00:56:29.052 : :Chapter 16
00:58:48.358 : :Chapter 17
01:02:06.222 : :Chapter 18
01:06:52.883 : :Chapter 19
01:09:52.938 : :Chapter 20
01:14:05.482 : :Chapter 21
01:20:04.466 : :Chapter 22
01:23:11.987 : :Chapter 23




Информация о фильме
    Название: Кунг-фу Панда 2
    Оригинальное название: Kung Fu Panda 2
    Год выхода: 2011
    Жанр: Боевик, Комедия, Приключения, Семейный
    Режиссер: Дженнифер Ю
    Выпущено: США
    Продолжительность: 01:30:23
    Перевод: Дублированный
    В ролях: Джек Блэк, Анджелина Джоли, Дастин Хоффман, Гари Олдман, Джеки Чан, Сет Роген, Люси Лью, Дэвид Кросс, Джеймс Хонг, Мишель Йео


Сюжет фильма
    Панда По наконец-то исполнит свою мечту, станет Воином Дракона и со своими друзьями и мастерами кунг-фу — Неистовой Пятеркой — защитит Великую Долину от страшного злодея и его легиона…


Файл
    Качество: BDRip 720p (DVD5) (исходник Blu-Ray Disc)
    Видео: 1280x544, 5636 Кбит/сек, 23,976 кадр/сек, AVC, x264, High@L4.1, 2.35:1, 0.338 Бит/[Пиксели*Кадры], 2pass
    Аудио 1: AC-3, 640 Кбит/сек, 6 канала(ов), 48,0 КГц - Дублированный / Русский
    Аудио 2: AC-3, 640 Кбит/сек, 6 канала(ов), 48,0 КГц - Оригинал / Английский
    Субтитры: Русские | Полные
    Чаптеры: Есть



Релиз Группа | Автор Рипа:



Format : Matroska
Format version : Version 4 / Version 2
File size : 4.37 GiB
Duration : 1h 30mn
Overall bit rate : 6 918 Kbps
Movie name : Кунг-фу Панда 2.(2008).BDRip.720p.(DVD5).[NoLimits-Team]
Encoded date : UTC 2013-05-23 11:23:44
Writing application : mkvmerge v6.0.0 ('Coming Up For Air') built on Jan 20 2013 09:52:00
Writing library : libebml v1.3.0 + libmatroska v1.4.0

Video
ID : 1
Format : AVC
Format/Info : Advanced Video Codec
Format profile : High@L4.1
Format settings, CABAC : Yes
Format settings, ReFrames : 12 frames
Codec ID : V_MPEG4/ISO/AVC
Duration : 1h 30mn
Bit rate : 5 636 Kbps
Width : 1 280 pixels
Height : 544 pixels
Display aspect ratio : 2.35:1
Frame rate mode : Constant
Frame rate : 23.976 fps
Color space : YUV
Chroma subsampling : 4:2:0
Bit depth : 8 bits
Scan type : Progressive
Bits/(Pixel*Frame) : 0.338
Stream size : 3.47 GiB (80%)
Title : Кунг-фу Панда 2.(2008).BDRip.720p.(DVD5).[NoLimits-Team]
Writing library : x264 core 132 r2310 76a5c3a
Encoding settings : cabac=1 / ref=12 / deblock=1:0:0 / analyse=0x3:0x133 / me=umh / subme=11 / psy=1 / psy_rd=1.00:0.00 / mixed_ref=1 / me_range=64 / chroma_me=1 / trellis=2 / 8x8dct=1 / cqm=0 / deadzone=21,11 / fast_pskip=0 / chroma_qp_offset=-2 / threads=9 / lookahead_threads=2 / sliced_threads=0 / nr=0 / decimate=1 / interlaced=0 / bluray_compat=0 / constrained_intra=0 / bframes=14 / b_pyramid=2 / b_adapt=2 / b_bias=0 / direct=3 / weightb=1 / open_gop=0 / weightp=2 / keyint=240 / keyint_min=23 / scenecut=40 / intra_refresh=0 / rc_lookahead=60 / rc=2pass / mbtree=1 / bitrate=5636 / ratetol=1.0 / qcomp=0.60 / qpmin=0 / qpmax=69 / qpstep=4 / cplxblur=20.0 / qblur=0.5 / ip_ratio=1.40 / aq=1:1.00
Language : English
Default : Yes
Forced : No

Audio #1
ID : 2
Format : AC-3
Format/Info : Audio Coding 3
Mode extension : CM (complete main)
Format settings, Endianness : Big
Codec ID : A_AC3
Duration : 1h 30mn
Bit rate mode : Constant
Bit rate : 640 Kbps
Channel(s) : 6 channels
Channel positions : Front: L C R, Side: L R, LFE
Sampling rate : 48.0 KHz
Bit depth : 16 bits
Compression mode : Lossy
Stream size : 414 MiB (9%)
Title : Дублированный
Language : Russian
Default : Yes
Forced : No

Audio #2
ID : 3
Format : AC-3
Format/Info : Audio Coding 3
Mode extension : CM (complete main)
Format settings, Endianness : Big
Codec ID : A_AC3
Duration : 1h 30mn
Bit rate mode : Constant
Bit rate : 640 Kbps
Channel(s) : 6 channels
Channel positions : Front: L C R, Side: L R, LFE
Sampling rate : 48.0 KHz
Bit depth : 16 bits
Compression mode : Lossy
Stream size : 414 MiB (9%)
Title : Английский
Language : English
Default : No
Forced : No

Text
ID : 4
Format : UTF-8
Codec ID : S_TEXT/UTF8
Codec ID/Info : UTF-8 Plain Text
Title : Русские (полные)
Language : Russian
Default : No
Forced : No

Menu
00:00:00.000 : :Chapter 01
00:03:54.275 : :Chapter 02
00:10:35.343 : :Chapter 03
00:16:09.385 : :Chapter 04
00:21:15.774 : :Chapter 05
00:29:56.628 : :Chapter 06
00:36:53.878 : :Chapter 07
00:41:14.180 : :Chapter 08
00:49:44.815 : :Chapter 09
00:54:06.826 : :Chapter 10
00:58:54.781 : :Chapter 11
01:05:09.238 : :Chapter 12
01:11:43.799 : :Chapter 13
01:15:31.902 : :Chapter 14
01:21:15.871 : :Chapter 15
   
Торрент: Зарегистрирован [Апрель 18, 2014, 5:36 pm]
Мультфильмы Скачать торрент Магнет ссылка Смотреть онлайн
Скачать торрент
[ Размер 22.67 КБ / Просмотров 4 ]
Статус:
Проверен
---
.torrent скачан: 11 раз
Приватный: Нет (DHT включён)
Размер: 8.74 ГБ (9 380 776 511)
   
Аватара пользователя
Denny
 
Раздал: 7.49 ТБ
Скачал: 807.97 ГБ
Ратио: 1007.499
Сообщения: 1934
Зарегистрирован: Ноябрь 19, 2012, 10:49 pm
Откуда: Россия

Флаг страны: Russia

  • Похожие торренты
    Ответы
    Просмотры
    Последнее сообщение

Вернуться в Мультфильмы



Кто сейчас на конференции

Сейчас эту тему просматривают: нет зарегистрированных пользователей и гости: 1

Ресурс не содержит никакой другой информации, кроме описаний отдельных файлов или их групп, имеющихся у некоторых пользователей данного ресурса. Подтверждением наличия данных файлов у пользователя может иногда являться специальный набор значений, представляющих собой результаты применения односторонних хеш-функций к этим файлам или их группам. Данные наборы значений объединяются пользователями в единое целое и могут быть выложены ими вместе с описаниями имеющихся у них файлов. Администрация данного ресурса не имеет физической возможности убедиться, что описания файлов, выложенные нашими пользователями, равно как и созданные ими наборы хешей от файлов, соответствуют реальным файлам имеющимся у пользователей, а не созданы каким-либо иным способом.
cron
Яндекс.Метрика