Qlimax (2008-2013) BDRip

Видеоклипы
 Статистика раздачи 
Размер: 8.74 ГБ   |  Зарегистрирован: Апрель 22, 2014, 9:24 pm   |   .torrent скачан: 10 раз
Сидеров: 2  [ 0 байт/сек ]   Личеров: 1  [ 0 байт/сек ]  

Qlimax (2008-2013) BDRip

Сообщение Denny » Апрель 22, 2014, 9:24 pm



Оригинальное название: Qlimax
Год проведения: 2008-2013
Жанр: Hardstyle, hardcore
О фильме:
Qlimax — ежегодный Hardstyle фестиваль, проводимый в Нидерландах на стадионе Gelredome в городе Арнем.
Это главная достопримечательность и одно из ведущих событий в пределах Hardstyle сообщества, проводимых Q-Dance,
которое традиционно выделяется масштабным световым и лазерным шоу.
Проводится Qlimax ежегодно в третий или четвертый уик-енд ноября.

Страна: Нидерланды (Q-Dance)
Продолжительность: 01:31:46 - 02:14:48
Перевод: Оригинал (не требуется)
Качество: MKV, H264, BDRip
Видео: V_MPEG4/AVC, 720x400 (16:9), 720x288 (2.490), 720x368 (2.000), 720x304 (2.40:1),
~ 1100 - 1600 Kbps, 24,000/25,000 кадров/сек, 2pass
Звук: Аудио: AC3, 48000Hz, 6ch, 448 Kbps



QLIMAX
2008, Next Dimensional World
(Продолжительность: 01:51:59)
1. Mark Sherry
2. Showtek
3. Headhunterz
4. Project One
5. D-Block & S-te-Fan
6. Technoboy
7. Tatanka
8. Zany & Vince
9. MC: Ruffian

2009, The Nature Of Our Mind
(Продолжительность: 01:43:47)
1. Isaac
2. A-Lusion
3. Davide Sonar (Live)
4. Brennan Heart
5. Technoboy
6. D-Block & S-te-Fan
7. Headhunterz
8. Noisecontrollers
9. Deepack
10. Noize Suppressor
11. MC: Ruffian

2010, Alternate Reality
(Продолжительность: 01:31:46)
1. Stephanie
2. Wildstylez
3. Noisecontrollers and Wildstylez (Surprise Act)
4. Brennan Heart TNT (Technoboy & Tuneboy)
5. TNT (Technoboy & Tuneboy)
6. D-Block & S-te-Fan
7. Psyko Punkz
8. Zatox
9. Endymion & Evil Activities
10. MC: Ruffian

2011, The Live registration
(Продолжительность: 01:46:34)
1. Stana
2. Coone
3. Headhunterz
4. Zany & The Pitcher feat. DV8
5. Noisecontrollers
6. Zatox
7. Ran-D
8. Gunz For Hire
9. The Prophet
10. MC: Ruffian

2012, Fate or Fortune
(Продолжительность: 02:14:48)
1. A*S*Y*S*
2. Wildstylez
3. Frontliner
4. Isaac
5. Technoboy
6. Zatox
7. Psyko Punkz
8. Brennan Heart
9. B-Front
10.Adaro
11.Evil Activities Ft. E-Life
12.MC: Ruffian & Villain

2013, Immortal Essence
(Продолжительность: 02:14:29)
1. ACTI
2. Max Enforcer
3. Wildstylez
4. Code Black
5. Gunz for Hire
6. Noisecontrollers
7. Alpha 2
8. Zatox
9. Mad Dog
10.Art Of Fighters
11.MC: Ruffian
General
Unique ID : 226657317094576335864221539094773881724
(0xAA849C85693D7C04AC09EDC7FCBBDB7C)
Complete name : Qlimax2013.BDRip.mkv
Format : Matroska
Format version : Version 2
File size : 1.46 GiB
Duration : 2h 14mn
Overall bit rate : 1 549 Kbps
Movie name : Qlimax.2013.Immortal. Essence_V_ATAKy
Encoded date : UTC 2014-04-20 12:38:36
Writing application : mkvmerge v5.5.0 ('Healer') built on Apr 9 2012 13:24:38
Writing library : libebml v1.2.3 + libmatroska v1.3.0

Video
ID : 1
Format : AVC
Format/Info : Advanced Video Codec
Format profile : High@L4.1
Format settings, CABAC : Yes
Format settings, ReFrames : 9 frames
Muxing mode : Header stripping
Codec ID : V_MPEG4/ISO/AVC
Duration : 2h 14mn
Bit rate : 1 100 Kbps
Width : 720 pixels
Height : 304 pixels
Display aspect ratio : 2.40:1
Frame rate mode : Constant
Frame rate : 24.000 fps
Color space : YUV
Chroma subsampling : 4:2:0
Bit depth : 8 bits
Scan type : Progressive
Bits/(Pixel*Frame) : 0.209
Stream size : 1.01 GiB (69%)
Title : Qlimax.2013.Immortal. Essence_www.rutor.org
Writing library : x264 core 142 r2409M d6b4e63
Encoding settings : cabac=1 / ref=9 / deblock=1:0:0 / analyse=0x3:0x133 / me=tesa / subme=11 / psy=1 / psy_rd=1,05:0,10 / mixed_ref=1 / me_range=16 / chroma_me=1 / trellis=2 / 8x8dct=1 / cqm=0 / deadzone=21,11 / fast_pskip=0 / chroma_qp_offset=-3 / threads=6 / lookahead_threads=1 / sliced_threads=0 / nr=0 / decimate=1 / interlaced=0 / bluray_compat=0 / constrained_intra=0 / bframes=9 / b_pyramid=2 / b_adapt=2 / b_bias=0 / direct=3 / weightb=1 / open_gop=0 / weightp=2 / keyint=240 / keyint_min=24 / scenecut=40 / intra_refresh=0 / rc_lookahead=240 / rc=2pass / mbtree=1 / bitrate=1100 / ratetol=1,0 / qcomp=0,70 / qpmin=3 / qpmax=69 / qpstep=4 / cplxblur=20,0 / qblur=0,5 / ip_ratio=1,40 / aq=2:1,00
Language : English
Default : Yes
Forced : No

Audio
ID : 2
Format : AC-3
Format/Info : Audio Coding 3
Mode extension : CM (complete main)
Format settings, Endianness : Big
Muxing mode : Header stripping
Codec ID : A_AC3
Duration : 2h 14mn
Bit rate mode : Constant
Bit rate : 448 Kbps
Channel(s) : 6 channels
Channel positions : Front: L C R, Side: L R, LFE
Sampling rate : 48.0 KHz
Bit depth : 16 bits
Compression mode : Lossy
Delay relative to video : -83ms
Stream size : 431 MiB (29%)
Title : AC3_5.1_V_ATAKy
Language : English
Default : Yes
Forced : No

Menu
00:00:00.000 : en:00:00:00.000
00:02:32.375 : en:00:02:32.375
00:06:33.500 : en:00:06:33.500
00:10:07.125 : en:00:10:07.125
00:20:05.042 : en:00:20:05.042
00:25:05.708 : en:00:25:05.708
00:34:38.000 : en:00:34:38.000
00:37:47.167 : en:00:37:47.167
00:48:26.292 : en:00:48:26.292
00:50:11.750 : en:00:50:11.750
01:19:27.292 : en:01:19:27.292
01:21:20.542 : en:01:21:20.542
01:31:07.292 : en:01:31:07.292
01:33:33.417 : en:01:33:33.417
01:46:01.292 : en:01:46:01.292
01:48:59.875 : en:01:48:59.875
01:58:12.667 : en:01:58:12.667
02:00:31.083 : en:02:00:31.083
02:07:09.667 : en:02:07:09.667
02:12:11.708 : en:02:12:11.708

   
Торрент: Зарегистрирован [Апрель 22, 2014, 9:24 pm]
Клипы Скачать торрент Магнет ссылка Смотреть онлайн
Скачать торрент
[ Размер 22.94 КБ / Просмотров 22 ]
Статус:
Проверен
---
.torrent скачан: 10 раз
Приватный: Нет (DHT включён)
Размер: 8.74 ГБ (9 380 753 408)
   
Аватара пользователя
Denny
 
Раздал: 7.49 ТБ
Скачал: 807.97 ГБ
Ратио: 1007.499
Сообщения: 1934
Зарегистрирован: Ноябрь 19, 2012, 10:49 pm
Откуда: Россия

Флаг страны: Russia

Вернуться в Клипы



Кто сейчас на конференции

Сейчас эту тему просматривают: нет зарегистрированных пользователей и гости: 1

Ресурс не содержит никакой другой информации, кроме описаний отдельных файлов или их групп, имеющихся у некоторых пользователей данного ресурса. Подтверждением наличия данных файлов у пользователя может иногда являться специальный набор значений, представляющих собой результаты применения односторонних хеш-функций к этим файлам или их группам. Данные наборы значений объединяются пользователями в единое целое и могут быть выложены ими вместе с описаниями имеющихся у них файлов. Администрация данного ресурса не имеет физической возможности убедиться, что описания файлов, выложенные нашими пользователями, равно как и созданные ими наборы хешей от файлов, соответствуют реальным файлам имеющимся у пользователей, а не созданы каким-либо иным способом.
cron
Яндекс.Метрика