Перекрестие / Crosshairs (2013) HDRip

Фильмы в формате DVD
 Статистика раздачи 
Размер: 1.46 ГБ   |  Зарегистрирован: Апрель 27, 2014, 2:11 pm   |   .torrent скачан: 1 раз
Сидеров: 7  [ 0 байт/сек ]   Личеров: 1  [ 0 байт/сек ]  

Перекрестие / Crosshairs (2013) HDRip

Сообщение sergey » Апрель 27, 2014, 2:11 pm

Информация о фильме
Название: Перекрестие
Оригинальное название: Crosshairs
Год выхода: 2013
Жанр: боевик, триллер, драма
Режиссер: Ник Ленц
В ролях: Роберт Сиэй, Марк Ролстон, Том Сайзмор, Джефф Парис, Коди Китчен, Люк Эдвардс, Мишель Ван Дер Уотер, Сильви Кас, Зитто Казанн, Бад Уотсон, Кэролин Стотс, Кристина Кулиш, Ребекка Беренс, Дрю Брилакис, Леви Филер, Грант Мэтис, Остин Мелроз

О фильме:
Джек Верлен — талантливый убийца, и он не видит ничего зазорного в своей профессии. Во время выполнения заказа на ликвидацию продюсера порнофильмов, изуродовавшего одну иммигрантку, он получает выгодное предложение от высокопоставленного банкира, от которого совсем не просто отказаться. А на следующий день на пороге его дома неожиданно появляется его бывшая, которая обращается к бывшему бойфренду с необычной просьбой…

Сэмпл

Файл
Качество: HDRip
Видео: XviD, 1541 kb/s, 720x304, 23.976 fps
Аудио: АС3, 48 KHz, 2 ch, 192 kbit/s
Продолжительность: 01:59:54
Перевод: Профессиональный (двухголосый) [НТВ+]

General
Complete name                            erekrestie.2013.P.HDRip.avi
Format                                   : AVI
Format/Info                              : Audio Video Interleave
File size                                : 1.46 GiB
Duration                                 : 1h 59mn
Overall bit rate                         : 1 743 Kbps
Writing application                      : VirtualDubMod 1.5.10.2 (build 2540/release)
Writing library                          : VirtualDubMod build 2540/release

Video
ID                                       : 0
Format                                   : MPEG-4 Visual
Format profile                           : Advanced Simple@L5
Format settings, BVOP                    : 2
Format settings, QPel                    : No
Format settings, GMC                     : No warppoints
Format settings, Matrix                  : Default (MPEG)
Codec ID                                 : XVID
Codec ID/Hint                            : XviD
Duration                                 : 1h 59mn
Bit rate                                 : 1 542 Kbps
Width                                    : 720 pixels
Height                                   : 304 pixels
Display aspect ratio                     : 2.35:1
Frame rate                               : 23.976 fps
Color space                              : YUV
Chroma subsampling                       : 4:2:0
Bit depth                                : 8 bits
Scan type                                : Progressive
Compression mode                         : Lossy
Bits/(Pixel*Frame)                       : 0.294
Stream size                              : 1.29 GiB (88%)
Writing library                          : XviD 1.2.1 (UTC 2008-12-04)

Audio
ID                                       : 1
Format                                   : AC-3
Format/Info                              : Audio Coding 3
Mode extension                           : CM (complete main)
Format settings, Endianness              : Big
Codec ID                                 : 2000
Duration                                 : 1h 59mn
Bit rate mode                            : Constant
Bit rate                                 : 192 Kbps
Channel(s)                               : 2 channels
Channel positions                        : Front: L R
Sampling rate                            : 48.0 KHz
Bit depth                                : 16 bits
Compression mode                         : Lossy
Stream size                              : 165 MiB (11%)
Alignment                                : Split accross interleaves
Interleave, duration                     : 42 ms (1.00 video frame)
Interleave, preload duration             : 500 ms










   
Торрент: Зарегистрирован [Апрель 27, 2014, 2:11 pm]
Видео DVD Скачать торрент Магнет ссылка Смотреть онлайн
Скачать торрент
[ Размер 15.17 КБ / Просмотров 5 ]
Статус:
Проверен
---
.torrent скачан: 1 раз
Приватный: Нет (DHT включён)
Размер: 1.46 ГБ (1 567 565 824)
   
Аватара пользователя
sergey
 
Раздал: 42.54 ТБ
Скачал: 198.69 ГБ
Ратио: 265.234
Сообщения: 5343
Зарегистрирован: Август 6, 2012, 2:11 pm
Откуда: СССР

Флаг страны: СССР

  • Похожие торренты
    Ответы
    Просмотры
    Последнее сообщение

Вернуться в Видео DVD



Кто сейчас на конференции

Сейчас эту тему просматривают: нет зарегистрированных пользователей и гости: 1

Ресурс не содержит никакой другой информации, кроме описаний отдельных файлов или их групп, имеющихся у некоторых пользователей данного ресурса. Подтверждением наличия данных файлов у пользователя может иногда являться специальный набор значений, представляющих собой результаты применения односторонних хеш-функций к этим файлам или их группам. Данные наборы значений объединяются пользователями в единое целое и могут быть выложены ими вместе с описаниями имеющихся у них файлов. Администрация данного ресурса не имеет физической возможности убедиться, что описания файлов, выложенные нашими пользователями, равно как и созданные ими наборы хешей от файлов, соответствуют реальным файлам имеющимся у пользователей, а не созданы каким-либо иным способом.
cron
Яндекс.Метрика