Таинственный путь / Mystery Road (2013) HDRip | L1

Фильмы в формате DVD
 Статистика раздачи 
Размер: 1.37 ГБ   |  Зарегистрирован: Апрель 30, 2014, 6:28 pm   |   .torrent скачан: 1 раз
Сидеров: 9  [ 0 байт/сек ]   Личеров: 2  [ 0 байт/сек ]  

Таинственный путь / Mystery Road (2013) HDRip | L1

Сообщение sergey » Апрель 30, 2014, 6:28 pm

Информация о фильме
Название: Таинственный путь
Оригинальное название: Mystery Road
Год выхода: 2013
Жанр: триллер, детектив
Режиссер: Иван Сен
В ролях: Аарон Педерсен, Хьюго Уивинг, Райан Квантен, Джек Томпсон, Тони Бэрри, Роберт Маммоне, Тасма Уолтон, Дэмиэн Уолш-Хоулинг, Дэвид Филд, Брюс Спенс

О фильме:
Джей Сван, детектив, возвращающийся в свой родной город в глубинке и начинающий расследовать одно жестокое преступление. Ему предстоит найти виновников убийства молодой девушки, чье тело было найдено в дренаже под шоссе…
Страна: Австралия
Студия: Mystery Road Films, Screen Australia
Продолжительность: 01:58:35
Перевод: Любительский (одноголосый) [datynet]

Файл
Кодек: XviD
Качество: HDRip
Видео: 720x304, 1457 kbps, 24 fps, 0.277 Bits/(Pixel*Frame)
Звук: AC3, 44,1 kHz, 192 kbps, 2 ch
Субтитры: Нет




General
Complete name : G:Mystery.Road.2013.HDRip_by_Bathory.avi
Format : AVI
Format/Info : Audio Video Interleave
File size : 1.37 GiB
Duration : 1h 58mn
Overall bit rate : 1 658 Kbps
Writing application : VirtualDubMod 1.5.10.3 | http://www.virtualdub-fr.org || (build 2550/release)
Writing library : VirtualDubMod build 2550/release

Video
ID : 0
Format : MPEG-4 Visual
Format profile : Advanced Simple@L5
Format settings, BVOP : 1
Format settings, QPel : No
Format settings, GMC : No warppoints
Format settings, Matrix : Default (MPEG)
Codec ID : XVID
Codec ID/Hint : XviD
Duration : 1h 58mn
Bit rate : 1 457 Kbps
Width : 720 pixels
Height : 304 pixels
Display aspect ratio : 2.35:1
Frame rate : 24.000 fps
Color space : YUV
Chroma subsampling : 4:2:0
Bit depth : 8 bits
Scan type : Progressive
Compression mode : Lossy
Bits/(Pixel*Frame) : 0.277
Stream size : 1.21 GiB (88%)
Writing library : XviD 73

Audio
ID : 1
Format : MPEG Audio
Format version : Version 1
Format profile : Layer 3
Mode : Joint stereo
Mode extension : MS Stereo
Codec ID : 55
Codec ID/Hint : MP3
Duration : 1h 58mn
Bit rate mode : Constant
Bit rate : 192 Kbps
Channel count : 2 channels
Sampling rate : 44.1 KHz
Compression mode : Lossy
Stream size : 163 MiB (12%)
Alignment : Split accross interleaves
Interleave, duration : 42 ms (1.00 video frame)
Interleave, preload duration : 500 ms
Writing library : LAME3.99r
Encoding settings : -m j -V 4 -q 2 -lowpass 18.6 -b 192

   
Торрент: Зарегистрирован [Апрель 30, 2014, 6:28 pm]
Видео DVD Скачать торрент Магнет ссылка Смотреть онлайн
Скачать торрент
[ Размер 14.25 КБ / Просмотров 6 ]
Статус:
Проверен
---
.torrent скачан: 1 раз
Приватный: Нет (DHT включён)
Размер: 1.37 ГБ (1 474 934 784)
   
Аватара пользователя
sergey
 
Раздал: 42.54 ТБ
Скачал: 198.69 ГБ
Ратио: 265.234
Сообщения: 5350
Зарегистрирован: Август 6, 2012, 2:11 pm
Откуда: СССР

Флаг страны: СССР

  • Похожие торренты
    Ответы
    Просмотры
    Последнее сообщение

Вернуться в Видео DVD



Кто сейчас на конференции

Сейчас эту тему просматривают: нет зарегистрированных пользователей и гости: 1

Ресурс не содержит никакой другой информации, кроме описаний отдельных файлов или их групп, имеющихся у некоторых пользователей данного ресурса. Подтверждением наличия данных файлов у пользователя может иногда являться специальный набор значений, представляющих собой результаты применения односторонних хеш-функций к этим файлам или их группам. Данные наборы значений объединяются пользователями в единое целое и могут быть выложены ими вместе с описаниями имеющихся у них файлов. Администрация данного ресурса не имеет физической возможности убедиться, что описания файлов, выложенные нашими пользователями, равно как и созданные ими наборы хешей от файлов, соответствуют реальным файлам имеющимся у пользователей, а не созданы каким-либо иным способом.
cron
Яндекс.Метрика