Хищники океанов 3D / Ocean Predators 3D (2013) BDRip 720p

Фильмы в формате DVD
 Статистика раздачи 
Размер: 2.18 ГБ   |  Зарегистрирован: Май 9, 2014, 8:38 am   |   .torrent скачан: 1 раз
Сидеров: 47  [ 0 байт/сек ]   Личеров: 2  [ 0 байт/сек ]  

Хищники океанов 3D / Ocean Predators 3D (2013) BDRip 720p

Сообщение sergey » Май 9, 2014, 8:38 am

Информация о фильме
Название: Хищники океанов 3D
Оригинальное название: Ocean Predators 3D
Год выпуска: 2013
Жанр: документальный
Режиссер: Бенжамин Эйчер

Описание: Присоединяйтесь к захватывающему путешествию в глубины океана в поисках самых опасных хищников! Вас ждет немало поразительных открытий об этих завораживающих и умелых охотниках. Долой мифы и легенды - готовы ли вы узнать настоящую правду об акулах, барракудах и муренах. Уникальные документальные кадры, снятые с помощью 3D-стереоскопа, покажут все, что вы хотели знать о настоящих Королях Океана!

Выпущено: США / Los Banditos Films
Продолжительность: 00:57:19
Перевод: Дублированный



Файл
Формат: MKV
Качество: BDRip
Видео кодек: AVC/H.264
Видео: 1280x720, 23.976fps, 5000 Kb/s
Аудио: 48KHz, DTS, 447 Kb/s (2 ch)



Format                         : Matroska
Format version                 : Version 2
File size                      : 2.18 GiB
Duration                       : 57mn 19s
Overall bit rate               : 5 444 Kbps
Encoded date                   : UTC 2013-12-23 08:31:27
Writing application            : mkvmerge v5.8.0 ('No Sleep / Pillow') built on Sep  2 2012 15:37:04
Writing library                : libebml v1.2.3 + libmatroska v1.3.0

Video
ID                             : 1
Format                         : AVC
Format/Info                    : Advanced Video Codec
Format profile                 : High@L4.1
Format settings, CABAC         : Yes
Format settings, ReFrames      : 9 frames
Codec ID                       : V_MPEG4/ISO/AVC
Duration                       : 57mn 19s
Bit rate                       : 5 000 Kbps
Width                          : 1 280 pixels
Height                         : 720 pixels
Display aspect ratio           : 16:9
Frame rate mode                : Constant
Frame rate                     : 23.976 fps
Color space                    : YUV
Chroma subsampling             : 4:2:0
Bit depth                      : 8 bits
Scan type                      : Progressive
Bits/(Pixel*Frame)             : 0.226
Stream size                    : 1.96 GiB (90%)
Writing library                : x264 core 140 r2377 1ca7bb9
Encoding settings              : cabac=1 / ref=9 / deblock=1:-3:-3 / analyse=0x3:0x133 / me=umh / subme=11 / psy=1 / psy_rd=1.00:0.10 / mixed_ref=1 / me_range=32 / chroma_me=1 / trellis=2 / 8x8dct=1 / cqm=0 / deadzone=21,11 / fast_pskip=0 / chroma_qp_offset=-3 / threads=6 / lookahead_threads=1 / sliced_threads=0 / nr=0 / decimate=0 / interlaced=0 / bluray_compat=0 / constrained_intra=0 / bframes=7 / b_pyramid=2 / b_adapt=2 / b_bias=0 / direct=3 / weightb=1 / open_gop=0 / weightp=2 / keyint=240 / keyint_min=23 / scenecut=40 / intra_refresh=0 / rc=2pass / mbtree=0 / bitrate=5000 / ratetol=1.0 / qcomp=0.60 / qpmin=0 / qpmax=69 / qpstep=4 / cplxblur=20.0 / qblur=0.5 / ip_ratio=1.40 / pb_ratio=1.30 / aq=1:0.90
Language                       : English
Default                        : Yes
Forced                         : No

Audio
ID                             : 2
Format                         : DTS
Format/Info                    : Digital Theater Systems
Mode                           : 16
Format settings, Endianness    : Big
Codec ID                       : A_DTS
Duration                       : 57mn 19s
Bit rate mode                  : Constant
Bit rate                       : 447 Kbps
Channel(s)                     : 2 channels
Channel positions              : Front: L R
Sampling rate                  : 48.0 KHz
Bit depth                      : 24 bits
Compression mode               : Lossy
Stream size                    : 183 MiB (8%)
Title                          : Дублированный
Language                       : Russian
Default                        : Yes
Forced                         : No
   
Торрент: Зарегистрирован [Май 9, 2014, 8:38 am]
Видео DVD Скачать торрент Магнет ссылка Смотреть онлайн
Скачать торрент
[ Размер 11.45 КБ / Просмотров 5 ]
Статус:
Проверен
---
.torrent скачан: 1 раз
Приватный: Нет (DHT включён)
Размер: 2.18 ГБ (2 340 390 300)
   
Аватара пользователя
sergey
 
Раздал: 42.54 ТБ
Скачал: 198.69 ГБ
Ратио: 265.234
Сообщения: 5347
Зарегистрирован: Август 6, 2012, 2:11 pm
Откуда: СССР

Флаг страны: СССР

Вернуться в Видео DVD



Кто сейчас на конференции

Сейчас эту тему просматривают: нет зарегистрированных пользователей и гости: 1

Ресурс не содержит никакой другой информации, кроме описаний отдельных файлов или их групп, имеющихся у некоторых пользователей данного ресурса. Подтверждением наличия данных файлов у пользователя может иногда являться специальный набор значений, представляющих собой результаты применения односторонних хеш-функций к этим файлам или их группам. Данные наборы значений объединяются пользователями в единое целое и могут быть выложены ими вместе с описаниями имеющихся у них файлов. Администрация данного ресурса не имеет физической возможности убедиться, что описания файлов, выложенные нашими пользователями, равно как и созданные ими наборы хешей от файлов, соответствуют реальным файлам имеющимся у пользователей, а не созданы каким-либо иным способом.
cron
Яндекс.Метрика