Букашки. Приключение в Долине муравьев / Minuscule - La vallée des fourmis perdues (2013) WEB-DLRip-AVC от EXKinoRay

Мультфильмы
 Статистика раздачи 
Размер: 1.01 ГБ   |  Зарегистрирован: Июнь 8, 2014, 10:38 pm   |   .torrent скачан: 22 раз
Сидеров: 112  [ 0 байт/сек ]   Личеров: 4  [ 0 байт/сек ]  

Букашки. Приключение в Долине муравьев / Minuscule - La vallée des fourmis perdues (2013) WEB-DLRip-AVC от EXKinoRay

Сообщение Denny » Июнь 8, 2014, 10:38 pm



Информация о фильме
Название: Букашки. Приключение в Долине муравьев
Оригинальное название: Minuscule - La vallée des fourmis perdues
Год выпуска: 2013
Жанр: Мультфильм, приключения, семейный
Выпущено: Франция, Entre Chien et Loup, Futurikon, Futurikon Production II
Режиссер: Хелен Жиро, Томас Забо

О фильме: Активные и любознательные черные муравьишки обнаруживают брошенную после пикника коробку с сахаром. Дружный отряд муравьишек вместе с Божьей коровкой решают переправить лакомство в муравейник. Но сладкая коробка уже успела нарушить спокойствие во всей долине, и свои планы на лакомство появились у других обитателей леса, в частности — у злобных красных муравьев-захватчиков. А, стало быть, на пути к заветной цели черным муравьишкам предстоит преодолеть массу опасностей и приключений.

Файл
Качество: WEB-DLRip (AVC)
Видео: MPEG-4 AVC, 1518 Кбит/с, 1024x424
Аудио: AC3, 2 ch, 192 Кбит/с
Размер: 1.01 ГБ
Продолжительность: 01:24:42
Перевод: Не требуется

General
Unique ID : 220613213628946551580827569696125328926 (0xA5F88F368343F647AAA09249BF5D9E1E)
Complete name : Pr1kljuch3nie.v.D0line.murav1ev.2013.WEB-DLRip.AVC.ExKinoRay.mkv
Format : Matroska
Format version : Version 2
File size : 1.01 GiB
Duration : 1h 24mn
Overall bit rate : 1 711 Kbps
Movie name : Minuscule from ExKinoRay
Encoded date : UTC 2014-05-26 14:17:17
Writing application : mkvmerge v4.9.1 ('Ich will') built on Jul 11 2011 23:53:15
Writing library : libebml v1.2.1 + libmatroska v1.1.1

Video
ID : 1
Format : AVC
Format/Info : Advanced Video Codec
Format profile : High@L4.1
Format settings, CABAC : Yes
Format settings, ReFrames : 9 frames
Codec ID : V_MPEG4/ISO/AVC
Duration : 1h 24mn
Bit rate : 1 518 Kbps
Width : 1 024 pixels
Height : 424 pixels
Display aspect ratio : 2.40:1
Frame rate mode : Constant
Frame rate : 25.000 fps
Color space : YUV
Chroma subsampling : 4:2:0
Bit depth : 8 bits
Scan type : Progressive
Bits/(Pixel*Frame) : 0.140
Stream size : 900 MiB (87%)
Title : Enigma
Writing library : x264 core 116 r2044 392e762
Encoding settings : cabac=1 / ref=9 / deblock=1:-2:-2 / analyse=0x3:0x113 / me=umh / subme=9 / psy=1 / psy_rd=1.00:0.20 / mixed_ref=1 / me_range=32 / chroma_me=1 / trellis=2 / 8x8dct=1 / cqm=0 / deadzone=21,11 / fast_pskip=0 / chroma_qp_offset=-3 / threads=12 / sliced_threads=0 / nr=0 / decimate=0 / interlaced=0 / bluray_compat=0 / constrained_intra=0 / bframes=8 / b_pyramid=2 / b_adapt=2 / b_bias=0 / direct=3 / weightb=1 / open_gop=0 / weightp=2 / keyint=250 / keyint_min=25 / scenecut=40 / intra_refresh=0 / rc=2pass / mbtree=0 / bitrate=1518 / ratetol=1.0 / qcomp=0.60 / qpmin=0 / qpmax=69 / qpstep=4 / cplxblur=20.0 / qblur=0.5 / ip_ratio=1.40 / pb_ratio=1.30 / aq=1:1.00
Default : Yes
Forced : No

Audio
ID : 2
Format : AC-3
Format/Info : Audio Coding 3
Mode extension : CM (complete main)
Format settings, Endianness : Big
Codec ID : A_AC3
Duration : 1h 24mn
Bit rate mode : Constant
Bit rate : 192 Kbps
Channel(s) : 2 channels
Channel positions : Front: L R
Sampling rate : 48.0 KHz
Bit depth : 16 bits
Compression mode : Lossy
Stream size : 116 MiB (11%)
Default : Yes
Forced : No





Релиз от:
   
Торрент: Зарегистрирован [Июнь 8, 2014, 10:38 pm]
Мультфильмы Скачать торрент Магнет ссылка Смотреть онлайн
Скачать торрент
[ Размер 10.77 КБ / Просмотров 7 ]
Статус:
Проверен
---
.torrent скачан: 22 раз
Приватный: Нет (DHT включён)
Размер: 1.01 ГБ (1 086 945 712)
   
Аватара пользователя
Denny
 
Раздал: 7.49 ТБ
Скачал: 807.97 ГБ
Ратио: 1007.499
Сообщения: 1934
Зарегистрирован: Ноябрь 19, 2012, 10:49 pm
Откуда: Россия

Флаг страны: Russia

  • Похожие торренты
    Ответы
    Просмотры
    Последнее сообщение

Вернуться в Мультфильмы



Кто сейчас на конференции

Сейчас эту тему просматривают: нет зарегистрированных пользователей и гости: 1

cron
Ресурс не содержит никакой другой информации, кроме описаний отдельных файлов или их групп, имеющихся у некоторых пользователей данного ресурса. Подтверждением наличия данных файлов у пользователя может иногда являться специальный набор значений, представляющих собой результаты применения односторонних хеш-функций к этим файлам или их группам. Данные наборы значений объединяются пользователями в единое целое и могут быть выложены ими вместе с описаниями имеющихся у них файлов. Администрация данного ресурса не имеет физической возможности убедиться, что описания файлов, выложенные нашими пользователями, равно как и созданные ими наборы хешей от файлов, соответствуют реальным файлам имеющимся у пользователей, а не созданы каким-либо иным способом.
cron
Яндекс.Метрика