Celine Dion - Celine Une Seule Fois Live (2013) BDRip-AVC от ExKinoRay

Видеоклипы
 Статистика раздачи 
Размер: 3.11 ГБ   |  Зарегистрирован: Июнь 9, 2014, 8:33 pm   |   .torrent скачан: 25 раз
Сидеров: 31  [ 0 байт/сек ]   Личеров: 11  [ 0 байт/сек ]  

Celine Dion - Celine Une Seule Fois Live (2013) BDRip-AVC от ExKinoRay

Сообщение Denny » Июнь 9, 2014, 8:33 pm



Информация о фильме
Оригинальное название: Une Seule Fois Live 2013
Год выпуска: 2014
Жанр: Концерт, поп
Выпущено: Sony Music Entertainment
Исполнитель: Селин Дион

О фильме: Селин Дион - имя, которое ассоциируется в первую очередь, с голосом. Сильным, узнаваемым и редким голосом. Благодаря ему, госпожа Дион уже вошла в сотню лучших исполнителей поп-музыки всех времён и народов.
Файл
Качество: BDRip (AVC)
Видео: MPEG-4 AVC, 3464 Кбит/с, 1024x576, 23.976 кадр/с
Аудио: Французский (AC3, 6 ch, 448 Кбит/с)
Продолжительность: 01:53:44
Перевод: Не требуется
Субтитры: Английские

01. "Ce n'etait qu'un reve" T. Dion · C. Dion · J. Dion 1:38
02. "Dans un autre monde" Goldman 4:06
03. "Parler a mon pere" Veneruso 2:59
04. "It's All Coming Back to Me Now/The Power of Love" (Medley) Steinman · Mende · DeRouge · Rush · Applegate 9:26
05. "On ne change pas" Goldman 4:25
06. "Destin" Goldman 3:18
07. "Qui peut vivre sans amour ?" Hesme · Gategno 3:27
08. "Je crois toi" Goldman 4:53
09. "La mer et l'enfant" Malade · Gategno 3:53
10. "Celle qui m'a tout appris" Bouraoui · Veneruso 3:53
11. "Terre" Benzi 4:04
12. "J'irai ou tu iras" (duet with Jean-Marc Couture) Goldman 3:43
13. "Bozo" Leclerc 3:03
14. "Je n'ai pas besoin d'amour" Ferland · Mercure 3:55
15. "S'il suffisait d'aimer" Goldman 4:36
16. "L'amour existe encore" Plamondon · Cocciante 4:17
17. "All by Myself" Carmen · Rachmaninoff 4:53
18. "Je sais pas" Goldman · Kapler 6:01
19. "Je danse dans ma tete/Des mots qui sonnent/Incognito" (Medley) Plamondon · Musumarra · Nova · Simon · Roussel 8:14
20. "Love Can Move Mountains/River Deep, Mountain High" (Medley) Warren · Greenwich · Barry · Spector 6:07
21. "My Heart Will Go On" Horner · Jennings 6:34
22. "Pour que tu m'aimes encore" Goldman 5:14
23. "Loved Me Back to Life" Hussain · Motes · Furler 4:49
24. "Le miracle" Bastide · Maurici 5:54

General
Unique ID : 213672283538666322475954748977958253247 (0xA0BFC8F0350E386EB5CB7C15D6AA72BF)
Complete name : Celine.Dion.Celine.Une.Seule.Fois.Live.2013.BDRip.AVC.ExKinoRay.mkv
Format : Matroska
Format version : Version 2
File size : 3.11 GiB
Duration : 1h 53mn
Overall bit rate : 3 912 Kbps
Movie name : Celine Dion - Celine Une Seule Fois Live 2013 from ExKinoRay
Encoded date : UTC 2014-06-08 16:24:44
Writing application : mkvmerge v4.9.1 ('Ich will') built on Jul 11 2011 23:53:15
Writing library : libebml v1.2.1 + libmatroska v1.1.1

Video
ID : 1
Format : AVC
Format/Info : Advanced Video Codec
Format profile : High@L4.1
Format settings, CABAC : Yes
Format settings, ReFrames : 8 frames
Codec ID : V_MPEG4/ISO/AVC
Duration : 1h 53mn
Bit rate : 3 464 Kbps
Width : 1 024 pixels
Height : 576 pixels
Display aspect ratio : 16:9
Frame rate mode : Constant
Frame rate : 23.976 fps
Color space : YUV
Chroma subsampling : 4:2:0
Bit depth : 8 bits
Scan type : Progressive
Bits/(Pixel*Frame) : 0.245
Stream size : 2.69 GiB (87%)
Title : Enigma-Vladislav71
Writing library : x264 core 116 r2044 392e762
Encoding settings : cabac=1 / ref=8 / deblock=1:-2:-2 / analyse=0x3:0x113 / me=umh / subme=9 / psy=1 / psy_rd=1.00:0.20 / mixed_ref=1 / me_range=32 / chroma_me=1 / trellis=2 / 8x8dct=1 / cqm=0 / deadzone=21,11 / fast_pskip=0 / chroma_qp_offset=-3 / threads=12 / sliced_threads=0 / nr=0 / decimate=0 / interlaced=0 / bluray_compat=0 / constrained_intra=0 / bframes=8 / b_pyramid=2 / b_adapt=2 / b_bias=0 / direct=3 / weightb=1 / open_gop=0 / weightp=2 / keyint=240 / keyint_min=23 / scenecut=40 / intra_refresh=0 / rc=2pass / mbtree=0 / bitrate=3464 / ratetol=1.0 / qcomp=0.60 / qpmin=0 / qpmax=69 / qpstep=4 / cplxblur=20.0 / qblur=0.5 / ip_ratio=1.40 / pb_ratio=1.30 / aq=1:1.00
Default : Yes
Forced : No

Audio
ID : 2
Format : AC-3
Format/Info : Audio Coding 3
Mode extension : CM (complete main)
Format settings, Endianness : Big
Codec ID : A_AC3
Duration : 1h 53mn
Bit rate mode : Constant
Bit rate : 448 Kbps
Channel(s) : 6 channels
Channel positions : Front: L C R, Side: L R, LFE
Sampling rate : 48.0 KHz
Bit depth : 16 bits
Compression mode : Lossy
Stream size : 365 MiB (11%)
Language : French
Default : Yes
Forced : No

Text
ID : 3
Format : UTF-8
Codec ID : S_TEXT/UTF8
Codec ID/Info : UTF-8 Plain Text
Language : English
Default : No
Forced : No

Menu
00:00:00.000 : :Chapter 01
00:01:37.847 : :Chapter 02
00:05:45.553 : :Chapter 03
00:08:45.858 : :Chapter 04
00:18:12.674 : :Chapter 05
00:22:39.024 : :Chapter 06
00:25:57.639 : :Chapter 07
00:29:25.513 : :Chapter 08
00:34:19.098 : :Chapter 09
00:38:12.373 : :Chapter 10
00:42:05.981 : :Chapter 11
00:46:11.894 : :Chapter 12
00:49:53.240 : :Chapter 13
00:52:57.674 : :Chapter 14
00:56:53.785 : :Chapter 15
01:01:30.103 : :Chapter 16
01:05:47.652 : :Chapter 17
01:10:41.612 : :Chapter 18
01:16:44.391 : :Chapter 19
01:25:05.683 : :Chapter 20
01:31:12.633 : :Chapter 21
01:37:45.526 : :Chapter 22
01:43:00.424 : :Chapter 23
01:47:50.005 : :Chapter 24





Релиз от:

Авторы релиза:
   
Торрент: Зарегистрирован [Июнь 9, 2014, 8:33 pm]
Клипы Скачать торрент Магнет ссылка Смотреть онлайн
Скачать торрент
[ Размер 16.18 КБ / Просмотров 27 ]
Статус:
Проверен
---
.torrent скачан: 25 раз
Приватный: Нет (DHT включён)
Размер: 3.11 ГБ (3 338 478 965)
   
Аватара пользователя
Denny
 
Раздал: 7.49 ТБ
Скачал: 807.97 ГБ
Ратио: 1007.499
Сообщения: 1934
Зарегистрирован: Ноябрь 19, 2012, 10:49 pm
Откуда: Россия

Флаг страны: Russia

Вернуться в Клипы



Кто сейчас на конференции

Сейчас эту тему просматривают: нет зарегистрированных пользователей и гости: 1

Ресурс не содержит никакой другой информации, кроме описаний отдельных файлов или их групп, имеющихся у некоторых пользователей данного ресурса. Подтверждением наличия данных файлов у пользователя может иногда являться специальный набор значений, представляющих собой результаты применения односторонних хеш-функций к этим файлам или их группам. Данные наборы значений объединяются пользователями в единое целое и могут быть выложены ими вместе с описаниями имеющихся у них файлов. Администрация данного ресурса не имеет физической возможности убедиться, что описания файлов, выложенные нашими пользователями, равно как и созданные ими наборы хешей от файлов, соответствуют реальным файлам имеющимся у пользователей, а не созданы каким-либо иным способом.
cron
Яндекс.Метрика