Зеленый Фонарь: Анимационный сериал / Green Lantern: The Animated Series [01x01-26 из 26] (2011-2013) DVDRip от New-Team | D | лицензия

Мультфильмы
 Статистика раздачи 
Размер: 8.45 ГБ   |  Зарегистрирован: Июнь 12, 2014, 11:20 pm   |   .torrent скачан: 15 раз
Сидеров: 22  [ 0 байт/сек ]   Личеров: 35  [ 0 байт/сек ]  

Зеленый Фонарь: Анимационный сериал / Green Lantern: The Animated Series [01x01-26 из 26] (2011-2013) DVDRip от New-Team | D | лицензия

Сообщение Denny » Июнь 12, 2014, 11:20 pm



«In brightest day, in blackest night, no evil shall escape his sight»


Страна: США
Год выпуска: 2011-2013
Киностудии: Cartoon Network, DC Entertainment, Warner Bros. Animation
Жанр: мультфильм, фантастика, боевик
Продолжительность: ~ 21 минута / серия
Перевод: Профессиональный (полное дублирование)
Субтитры: русские
Оригинальная аудиодорожка: английский


Режиссер: Сэм Лью / Sam Liu, Рик Моралес / Rick Morales


Озвучивали: Джошуа Китон, Кевин Майкл Ричардсон, Джейсон Спайсэк, Грэй ДеЛисл, Брайан Джордж, Том Кенни, Джонатан Адамс, Сьюзан Блэйксли, Дженнифер Хейл, Йен Эберкромби...

Дублировали: Михаил Тихонов, Александр Новиков, Пётр Иващенко

Описание: Быть полицейским тяжело. Быть космическим полицейским — еще тяжелее. Присоединитесь к Зеленым Фонарям Земли — Хэлу Джордану, Гаю Гаднеру, Джону Стюарту и Кайлу Райнеру, чтобы спасти Вселенную от опаснейших врагов, среди которых коварный Синестро, когда-то бывший Зеленым Фонарем, инопланетный злодей Десперо и толпы безжалостных роботов — охотников на людей.
Возрождение Корпуса Красных Фонарей 1: Следуя данной присяге, Корпус Зеленых Фонарей патрулирует галактику, защищая ее от злоумышленников. Но в самом дальнем ее уголке, в дали от основных сил Корпуса, поднимается новое зло - Красные Фонари! Атроцитус и его преспешники Зилиус Зокс и Рейзер не остановятся ни перед чем, чтобы отомстить Хранителям Вселенной. Узнав об этом, Хэл Джордан и Киловог покидают Хранителей на борту нового экспериментального космолета "Перехватчик" и спешат на Передовую, чтобы встретиться с Красными Фонарями лицом к лицу.
Возрождение Корпуса Красных Фонарей 2: Зеленый Фонарь и его команда продолжают борьбу с коварными Красными Фонарями, но и помимо них у Вселенной хватает врагов! В крестовом походе против зла Хэл Джордан, Киловог, Айя и бросивший Красных Фонарей Рейзер вынужден сражаться с инопланетными расами, космическими монстрами и воительницами Корпуса Звездного Сапфира. А тем временем, Атроцитус и Зилиус Зокс не покладая рук готовят коварную и сверхмощную атаку на Хранителей Вселенной! Сможет ли Корпус вовремя остановить их?!
Новая угроза: После спасения Хранителей Вселенной от вторжения Красных Фонарей Хэл Джордан и его друзья из Корпуса Зеленых Фонарей - Киловог, Томар-Ре и Айя понимают, что страшная опасность угрожает всему живому! Вы увидите сражение любимых героев со смертоносными роботами - Охотниками за головами, встретитесь с культовым героем Гаем Гарднером и знаменитым злодеем Синестром, а также лицом к лицу столкнетесь с ужасным Анти-Монитором. Героям нужно во что бы то ни стало победить всех врагов, пока не стало слишком поздно!

Качество: DVDRip / 4 x DVD9 R5 от CP Дистрибуция
Формат: AVI

Видео: 720x400 (16:9), 25.000 fps, XviD ~ 1800 kbps avg, 0.193 bit/pixel
Аудио 1: 48 kHz, Dolby AC3 2.0 192 kbps, русский
Аудио 2: 48 kHz, Dolby AC3 2.0 192 kbps, английский
Формат субтитров: SoftSub (srt)


Диск 1: Возрождение корпуса Красных Фонарей, том 1
Эпизод 1: Берегись моей мощи... Свет Зеленого фонаря (часть первая) / Beware My Power: Part One, 11 ноября 2011
Эпизод 2: Берегись моей мощи... Свет Зеленого фонаря (часть вторая) / Beware My Power: Part Two, 11 ноября 2011
Эпизод 3: На острие Лезвия / Razer's Edge, 17 марта 2012
Эпизод 4: В бездну! / Into the Abyss, 24 марта 2012
Эпизод 5: Прямой наследник / Heir Apparent, 31 марта 2012
Эпизод 6: Затерянная планета / Lost Planet, 7 апреля 2012
Эпизод 7: Расплата / Reckoning, 14 апреля 2012
----------------------------------------------------

Диск 2: Возрождение корпуса Красных Фонарей, том 2
Эпизод 8: Страх собственной персоной / Fear Itself, 21 апреля 2012
Эпизод 9: В любви и на войне / In Love and War, 28 апреля 2012
Эпизод 10: Смена власти / Regime Change, 5 мая 2012
Эпизод 11: Клуб пилотов / Flight Club, 12 мая 2012
Эпизод 12: Вторжение / Invasion, 19 мая 2012
Эпизод 13: Возвращение / Homecoming, 26 мая 2012
----------------------------------------------------

Диск 3: Новая угроза, том 1
Эпизод 14: Новичок / The New Guy, 29 сентября 2012
Эпизод 15: Перезагрузка / Reboot, 6 октября 2012
Эпизод 16: Паровой фонарь / Steam Lantern, 30 ноября 2012
Эпизод 17: Голубой цвет надежды / Blue Hope, 12 января 2013
Эпизод 18: Пленник Синестро / Prisoner of Sinestro, 19 января 2013
Эпизод 19: Потеря / Loss, 26 января 2013
Эпизод 20: Холодная ярость / Cold Fury, 2 февраля 2013
----------------------------------------------------

Диск 4: Новая угроза, том 2
Эпизод 21: Вавилон / Babel, 9 февраля 2013
Эпизод 22: Любовь это война / Love Is a Battlefield, 16 февраля 2013
Эпизод 23: Ларфлиз / Larfleeze, 23 февраля 2013
Эпизод 24: Зарубцованный / Scarred, 2 марта 2013
Эпизод 25: Ранкс / Ranx, 9 марта 2013
Эпизод 26: Темная материя / Dark Matter, 16 марта 2013
[/size]

Общее
Полное имя : Zelenyi.Fonar.Animatsionnyi.serial.2011.D.DVDRip_[New-Team]_by_avproh1.Beregis.moey.moshi.ch1.avi
Формат : AVI
Формат/Информация : Audio Video Interleave
Размер файла : 332 Мбайт
Продолжительность : 21 м.
Общий поток : 2199 Кбит/сек
Программа кодирования : VirtualDubModRus 1.5.10.2 (build 2542/release)
Библиотека кодирования : VirtualDubMod build 2542/release

Видео
Идентификатор : 0
Формат : MPEG-4 Visual
Профиль формата : Advanced Simple@L5
Параметр BVOP формата : 1
Параметр QPel формата : Нет
Параметр GMC формата : Без точки перехода
Параметр матрицы формата : Выборочная
Идентификатор кодека : XVID
Идентификатор кодека/Подсказка : XviD
Продолжительность : 21 м.
Битрейт : 1800 Кбит/сек
Ширина : 720 пикселей
Высота : 400 пикселей
Соотношение сторон : 16:9
Частота кадров : 25,000 кадров/сек
Цветовое пространство : YUV
Субдискретизация насыщенности : 4:2:0
Битовая глубина : 8 бит
Тип развёртки : Прогрессивная
Метод сжатия : С потерями
Бит/(Пиксели*Кадры) : 0.250
Размер потока : 272 Мбайт (82%)
Библиотека кодирования : XviD 73

Аудио #1
Идентификатор : 1
Формат : AC-3
Формат/Информация : Audio Coding 3
Профиль формата : Dolby Digital
Расширение режима : CM (complete main)
Параметр Endianness формата : Big
Идентификатор кодека : 2000
Продолжительность : 21 м.
Вид битрейта : Постоянный
Битрейт : 192 Кбит/сек
Каналы : 2 канала
Расположение каналов : Front: L R
Частота : 48,0 КГц
Битовая глубина : 16 бит
Метод сжатия : С потерями
Размер потока : 29,0 Мбайт (9%)
Выравнивание : Разделение по промежуткам
Продолжительность промежутка : 40 мс. (1,00 видеокадр)
Время предзагрузки промежутка : 500 мс.

Аудио #2
Идентификатор : 2
Формат : AC-3
Формат/Информация : Audio Coding 3
Профиль формата : Dolby Digital
Расширение режима : CM (complete main)
Параметр Endianness формата : Big
Идентификатор кодека : 2000
Продолжительность : 21 м.
Вид битрейта : Постоянный
Битрейт : 192 Кбит/сек
Каналы : 2 канала
Расположение каналов : Front: L R
Частота : 48,0 КГц
Битовая глубина : 16 бит
Метод сжатия : С потерями
Размер потока : 29,0 Мбайт (9%)
Выравнивание : Разделение по промежуткам
Продолжительность промежутка : 40 мс. (1,00 видеокадр)
Время предзагрузки промежутка : 500 мс.


   
Торрент: Зарегистрирован [Июнь 12, 2014, 11:20 pm]
Мультфильмы Скачать торрент Магнет ссылка Смотреть онлайн
Скачать торрент
[ Размер 25.03 КБ / Просмотров 4 ]
Статус:
Проверен
---
.torrent скачан: 15 раз
Приватный: Нет (DHT включён)
Размер: 8.45 ГБ (9 078 418 257)
   
Аватара пользователя
Denny
 
Раздал: 7.49 ТБ
Скачал: 807.97 ГБ
Ратио: 1007.499
Сообщения: 1934
Зарегистрирован: Ноябрь 19, 2012, 10:49 pm
Откуда: Россия

Флаг страны: Russia

Вернуться в Мультфильмы



Кто сейчас на конференции

Сейчас эту тему просматривают: нет зарегистрированных пользователей и гости: 1

Ресурс не содержит никакой другой информации, кроме описаний отдельных файлов или их групп, имеющихся у некоторых пользователей данного ресурса. Подтверждением наличия данных файлов у пользователя может иногда являться специальный набор значений, представляющих собой результаты применения односторонних хеш-функций к этим файлам или их группам. Данные наборы значений объединяются пользователями в единое целое и могут быть выложены ими вместе с описаниями имеющихся у них файлов. Администрация данного ресурса не имеет физической возможности убедиться, что описания файлов, выложенные нашими пользователями, равно как и созданные ими наборы хешей от файлов, соответствуют реальным файлам имеющимся у пользователей, а не созданы каким-либо иным способом.
cron
Яндекс.Метрика