Черный орел / Black Eagle (1988) BDRip 720p от NNNB | Director's Cut

Фильмы высокого разрешения в формате HDTV
 Статистика раздачи 
Размер: 4.37 ГБ   |  Зарегистрирован: Июнь 23, 2014, 9:30 pm   |   .torrent скачан: 20 раз
Сидеров: 77  [ 0 байт/сек ]   Личеров: 25  [ 0 байт/сек ]  

Черный орел / Black Eagle (1988) BDRip 720p от NNNB | Director's Cut

Сообщение Denny » Июнь 23, 2014, 9:30 pm



Название: Черный орел
Оригинальное название: Black Eagle
Год выпуска: 1988
Жанр: Боевик, драма
Выпущено: США, Magus, Rotecon B.V.
Режиссер: Эрик Карсон
В ролях: Сё Косуги, Жан-Клод Ван Дамм, Доран Кларк, Брюс Френч, Владимир Скомаровский, Уильям Бассетт, Кейн Косуги, Шейн Косуги, Дорота Пузио, Ян Тришка, Джин Дэвис, Альфред Маллиа, Джо Квоттромани, Виктор Бартоло, Джордж Портелли, Эрик Карсон, Джули Рудольф, Джози Коппини, Годфри Беццина, Кевин Монреаль, Чарльз Заммит, Джон Суда, Сильвио Анастаси, Филип Гоци, Майкл Табоун, Лина Гали-Кумбо, Майкл Скиортино, Патриция Махони, Рэй Абдилла, Марко Борг Бонаки, Кэйти Ван дер Ваккер, Роман Велла, Ванни Риоло, Фрэнк Писани, Луи Агиус, Жуан Борг Мандука, Чарльз Тэйк, Лино Греч, Джэйсон Тревисон
Перевод: Профессиональный многоголосый закадровый, Авторский
Сюжет фильма
Под именем «Черного Орла» специальный агент ЦРУ приезжает на Мальту, чтобы помешать КГБ выкрасть суперсекретное новое лазерное устройство. С этого дня спокойная жизнь для обитателей острова закончилась: взрывы, погони, убийства, похищения детей. Поклонники этих двух звезд не будут разочарованы этой приключенческой, насыщенной действием картиной.
Файл
Качество: BDRip 720p (исходник Blu-ray Remux )
Видео: 1280x720, 3 960 Кбит/сек, 23.976 кадр/сек, AVC, x264, High@L4.1, 0.179 Бит/[Пиксели*Кадры], 2pass
Аудио 1: AC3 2.0 48 kHz 192 kbps - многоголосый, Россия1 + вставки из Гаврилова (поздний)
Аудио 2: AC3 2.0 48 kHz 192 kbps - многоголосый, СТС)+ вставки из Сербина
Аудио 3: AC3 2.0 48 kHz 192 kbps - авторский одноголосый, Гаврилов (ранний) + вставки из Гаврилова (поздний)
Аудио 4: AC3 5.1 48 kHz 448 kbps - авторский одноголосый, Гаврилов (поздний)
Аудио 5: AC3 2.0 48 kHz 192 kbps - авторский одноголосый, Сербин
Аудио 6: AC3 2.0 48 kHz 192 kbps - Ukrainian - многоголосый, НТН
Аудио 7: AC3 2.0 48 kHz 192 kbps - Ukrainian - многоголосый, КИНО
Аудио 8: AC3 5.1 48 kHz 448 kbps - English
Чаптеры: есть
Продолжительность: 01:44:05
ЦитатаКто-то писал:
Так как это режиссерская версия, полный перевод на неё только в дорожках Сербина и Гаврилова (поздний). Остальные дорожки имеют вставки. Украинские дорожки не имеют перевода на расширенные места. Расширенных мест около 11 мин (было сделано по 7 вставок переводчиков в рус дорожки)


Format : Matroska
Format version : Version 2
File size : 4.37 GiB
Duration : 1h 44mn
Overall bit rate : 6 010 Kbps
Movie name : Chernyj orel.(1988).BDRip.720p.[denis100].Director's Cut
Encoded date : UTC 2014-06-20 04:30:58
Writing application : mkvmerge v5.8.0 ('No Sleep / Pillow') built on Sep 2 2012 15:37:04
Writing library : libebml v1.2.3 + libmatroska v1.3.0
Video
ID : 1
Format : AVC
Format/Info : Advanced Video Codec
Format profile : High@L4.1
Format settings, CABAC : Yes
Format settings, ReFrames : 9 frames
Codec ID : V_MPEG4/ISO/AVC
Duration : 1h 44mn
Bit rate : 3 960 Kbps
Width : 1 280 pixels
Height : 720 pixels
Display aspect ratio : 16:9
Frame rate mode : Constant
Frame rate : 23.976 fps
Color space : YUV
Chroma subsampling : 4:2:0
Bit depth : 8 bits
Scan type : Progressive
Bits/(Pixel*Frame) : 0.179
Stream size : 2.79 GiB (64%)
Title : Chernyj orel.(1988).BDRip.720p.[denis100].Director's Cut
Writing library : x264 core 138 r2358 9e941d1
Encoding settings : cabac=1 / ref=9 / deblock=1:-3:-3 / analyse=0x3:0x133 / me=umh / subme=11 / psy=1 / psy_rd=1.00:0.15 / mixed_ref=1 / me_range=32 / chroma_me=1 / trellis=2 / 8x8dct=1 / cqm=0 / deadzone=21,11 / fast_pskip=0 / chroma_qp_offset=-3 / threads=6 / lookahead_threads=1 / sliced_threads=0 / nr=0 / decimate=1 / interlaced=0 / bluray_compat=0 / constrained_intra=0 / bframes=7 / b_pyramid=2 / b_adapt=2 / b_bias=0 / direct=3 / weightb=1 / open_gop=0 / weightp=2 / keyint=240 / keyint_min=23 / scenecut=40 / intra_refresh=0 / rc=2pass / mbtree=0 / bitrate=3960 / ratetol=1.0 / qcomp=0.60 / qpmin=0 / qpmax=69 / qpstep=4 / cplxblur=20.0 / qblur=0.5 / ip_ratio=1.40 / pb_ratio=1.30 / aq=1:0.90
Language : English
Default : Yes
Forced : No
Audio #1
ID : 2
Format : AC-3
Format/Info : Audio Coding 3
Mode extension : CM (complete main)
Format settings, Endianness : Big
Codec ID : A_AC3
Duration : 1h 44mn
Bit rate mode : Constant
Bit rate : 192 Kbps
Channel(s) : 2 channels
Channel positions : Front: L R
Sampling rate : 48.0 KHz
Bit depth : 16 bits
Compression mode : Lossy
Stream size : 143 MiB (3%)
Title : многоголосый, Россия1 + вставки из Гаврилова (поздний)
Language : Russian
Default : Yes
Forced : No
Audio #2
ID : 3
Format : AC-3
Format/Info : Audio Coding 3
Mode extension : CM (complete main)
Format settings, Endianness : Big
Codec ID : A_AC3
Duration : 1h 44mn
Bit rate mode : Constant
Bit rate : 192 Kbps
Channel(s) : 2 channels
Channel positions : Front: L R
Sampling rate : 48.0 KHz
Bit depth : 16 bits
Compression mode : Lossy
Stream size : 143 MiB (3%)
Title : многоголосый, СТС)+ вставки из Сербина
Language : Russian
Default : No
Forced : No
Audio #3
ID : 4
Format : AC-3
Format/Info : Audio Coding 3
Mode extension : CM (complete main)
Format settings, Endianness : Big
Codec ID : A_AC3
Duration : 1h 44mn
Bit rate mode : Constant
Bit rate : 192 Kbps
Channel(s) : 2 channels
Channel positions : Front: L R
Sampling rate : 48.0 KHz
Bit depth : 16 bits
Compression mode : Lossy
Stream size : 143 MiB (3%)
Title : авторский одноголосый, Гаврилов (ранний) + вставки из Гаврилова (поздний)
Language : Russian
Default : No
Forced : No
Audio #4
ID : 5
Format : AC-3
Format/Info : Audio Coding 3
Mode extension : CM (complete main)
Format settings, Endianness : Big
Codec ID : A_AC3
Duration : 1h 44mn
Bit rate mode : Constant
Bit rate : 448 Kbps
Channel(s) : 6 channels
Channel positions : Front: L C R, Side: L R, LFE
Sampling rate : 48.0 KHz
Bit depth : 16 bits
Compression mode : Lossy
Stream size : 334 MiB (7%)
Title : авторский одноголосый, Гаврилов (поздний)
Language : Russian
Default : No
Forced : No
Audio #5
ID : 6
Format : AC-3
Format/Info : Audio Coding 3
Mode extension : CM (complete main)
Format settings, Endianness : Big
Codec ID : A_AC3
Duration : 1h 44mn
Bit rate mode : Constant
Bit rate : 192 Kbps
Channel(s) : 2 channels
Channel positions : Front: L R
Sampling rate : 48.0 KHz
Bit depth : 16 bits
Compression mode : Lossy
Stream size : 143 MiB (3%)
Title : авторский одноголосый, Сербин
Language : Russian
Default : No
Forced : No
Audio #6
ID : 7
Format : AC-3
Format/Info : Audio Coding 3
Mode extension : CM (complete main)
Format settings, Endianness : Big
Codec ID : A_AC3
Duration : 1h 44mn
Bit rate mode : Constant
Bit rate : 192 Kbps
Channel(s) : 2 channels
Channel positions : Front: L R
Sampling rate : 48.0 KHz
Bit depth : 16 bits
Compression mode : Lossy
Stream size : 143 MiB (3%)
Title : многоголосый, НТН
Language : Ukrainian
Default : No
Forced : No
Audio #7
ID : 8
Format : AC-3
Format/Info : Audio Coding 3
Mode extension : CM (complete main)
Format settings, Endianness : Big
Codec ID : A_AC3
Duration : 1h 44mn
Bit rate mode : Constant
Bit rate : 192 Kbps
Channel(s) : 2 channels
Channel positions : Front: L R
Sampling rate : 48.0 KHz
Bit depth : 16 bits
Compression mode : Lossy
Stream size : 143 MiB (3%)
Title : многоголосый, КИНО
Language : Ukrainian
Default : No
Forced : No
Audio #8
ID : 9
Format : AC-3
Format/Info : Audio Coding 3
Mode extension : CM (complete main)
Format settings, Endianness : Big
Codec ID : A_AC3
Duration : 1h 44mn
Bit rate mode : Constant
Bit rate : 448 Kbps
Channel(s) : 6 channels
Channel positions : Front: L C R, Side: L R, LFE
Sampling rate : 48.0 KHz
Bit depth : 16 bits
Compression mode : Lossy
Stream size : 334 MiB (7%)
Title : English
Language : English
Default : No
Forced : No
Menu
00:00:00.000 : en:00:00:00.000
00:00:00.375 : en:00:00:00.375
00:14:16.938 : en:00:14:16.938
00:28:09.104 : en:00:28:09.104
00:43:15.842 : en:00:43:15.842
00:55:22.735 : en:00:55:22.735
01:08:51.042 : en:01:08:51.042
01:20:13.725 : en:01:20:13.725
01:31:27.398 : en:01:31:27.398
x264 [info]: frame I:1191 Avg QP:14.82 size:101423
x264 [info]: frame P:41478 Avg QP:17.46 size: 37377
x264 [info]: frame B:107070 Avg QP:19.69 size: 13254
   
Торрент: Зарегистрирован [Июнь 23, 2014, 9:30 pm]
Видео HDTV Скачать торрент Магнет ссылка Смотреть онлайн
Скачать торрент
[ Размер 22.38 КБ / Просмотров 11 ]
Статус:
Проверен
---
.torrent скачан: 20 раз
Приватный: Нет (DHT включён)
Размер: 4.37 ГБ (4 691 935 611)
   
Аватара пользователя
Denny
 
Раздал: 7.49 ТБ
Скачал: 807.97 ГБ
Ратио: 1007.499
Сообщения: 1934
Зарегистрирован: Ноябрь 19, 2012, 10:49 pm
Откуда: Россия

Флаг страны: Russia

Вернуться в Видео HDTV



Кто сейчас на конференции

Сейчас эту тему просматривают: нет зарегистрированных пользователей и гости: 1

Ресурс не содержит никакой другой информации, кроме описаний отдельных файлов или их групп, имеющихся у некоторых пользователей данного ресурса. Подтверждением наличия данных файлов у пользователя может иногда являться специальный набор значений, представляющих собой результаты применения односторонних хеш-функций к этим файлам или их группам. Данные наборы значений объединяются пользователями в единое целое и могут быть выложены ими вместе с описаниями имеющихся у них файлов. Администрация данного ресурса не имеет физической возможности убедиться, что описания файлов, выложенные нашими пользователями, равно как и созданные ими наборы хешей от файлов, соответствуют реальным файлам имеющимся у пользователей, а не созданы каким-либо иным способом.
cron
Яндекс.Метрика