Континуум / Continuum (сезон 3, серии 1-13 (13)) [2014, WEB-DLRip] | P | LostFilm

Отечественные и зарубежные сериалы
 Статистика раздачи 
Размер: 5.84 ГБ   |  Зарегистрирован: Июнь 30, 2014, 7:41 pm   |   .torrent скачан: 1 раз
Сидеров: 12  [ 0 байт/сек ]   Личеров: 6  [ 0 байт/сек ]  

Континуум / Continuum (сезон 3, серии 1-13 (13)) [2014, WEB-DLRip] | P | LostFilm

Сообщение Denny » Июнь 30, 2014, 7:41 pm



Название: Континуум
В оригинале: Continuum
Слоган: «The Future Is In Her Hands»
Жанр : фантастика, триллер
Год: 2014

Сезон: 3
Серии: 1-13
Всего серий в сезоне: 13

Режиссёр: Пэт Уильямс, Дэвид Фрэйзи, Майк Рол
Сценарий: Саймон Бэрри, Джонатан Уолкер, Джереми Смит
Продюсеры: Пэт Уильямс, Саймон Бэрри, Холли Редфорд
Оператор: Дэвид Пеллетье, Майкл Вейл, Джоэль Рэнсом
Композитор : Джефф Дэнна
Художник : Крис Аугуст, Джеймс Филпотт, Нэнси С. Ли
Монтаж: Аллан Ли, Джэми Ален, Майк Банас

В ролях: Рэйчел Николс, Виктор Уэбстер, Эрик Кнудсен, Стефен Лобо, Ричард Хэрмон, Брайан Маркинсон, Дженнифер Спенс, Джон Генри Рирдон, Роджер Р. Кросс, Лекса Дойг, Омари Ньютон, Кэйтлин Кромуэлл...

Описание: Группа террористов-фанатиков, избежавшая казни в 2077 году, перемещается в наше время вместе с преследующим их полицейским Кирой Камерон. Кира Кэмерон, уникальный специалист, и компьютерный гений по имени Садлер в недалеком прошлом будут пытаться остановить группу террористов-фанатиков: Попавшая в 2012-й год вместе с бегущими от властей экстремистами Кира устраивается обычным сотрудником в обычное отделение полиции - так начинается новый фантастический сериал, в котором герои будут перемещаться не только в пространстве, но и во времени.

Выпущено: США, Канада / Reunion Pictures, Shaw Media
Продолжительность: 13 x ~ 00:43:54
Перевод: Профессиональный (многоголосый, закадровый) | LostFilm
Формат: avi
Качество: WEB-DLRip
Видео: 720x400 (1.80:1), 23.976 fps, XviD build 50 ~ 1184 kbps avg, 0.171 bit/pixel
Аудио: 48 kHz, MPEG Layer 3, 2/0 (L,R) ch, 192.00 kbps avg                           

General
Complete name : Continuum.s03\Continuum.S03E01.rus.LostFilm.avi
Format : AVI
Format/Info : Audio Video Interleave
File size : 434 MiB
Duration : 43mn 54s
Overall bit rate mode : Variable
Overall bit rate : 1 383 Kbps
Writing application : Nandub v1.0rc2
Writing library : Nandub build 1853/release

Video
ID : 0
Format : MPEG-4 Visual
Format profile : Simple@L3
Format settings, BVOP : No
Format settings, QPel : No
Format settings, GMC : No warppoints
Format settings, Matrix : Default (H.263)
Codec ID : XVID
Codec ID/Hint : XviD
Duration : 43mn 54s
Bit rate : 1 184 Kbps
Width : 720 pixels
Height : 400 pixels
Display aspect ratio : 16:9
Frame rate : 23.976 fps
Color space : YUV
Chroma subsampling : 4:2:0
Bit depth : 8 bits
Scan type : Progressive
Compression mode : Lossy
Bits/(Pixel*Frame) : 0.171
Stream size : 372 MiB (86%)
Writing library : XviD 1.2.1 (UTC 2008-12-04)

Audio
ID : 1
Format : MPEG Audio
Format version : Version 1
Format profile : Layer 3
Mode : Joint stereo
Codec ID : 55
Codec ID/Hint : MP3
Duration : 43mn 54s
Bit rate mode : Variable
Bit rate : 192 Kbps
Channel(s) : 2 channels
Sampling rate : 48.0 KHz
Compression mode : Lossy
Stream size : 58.6 MiB (13%)
Alignment : Aligned on interleaves
Interleave, duration : 24 ms (0.58 video frame)
Interleave, preload duration : 539 ms
Writing library : LAME3.97b
Encoding settings : -m j -V 4 -q 3 -lowpass 18.6 --abr 192



   
Торрент: Зарегистрирован [Июнь 30, 2014, 7:41 pm]
Сериалы Скачать торрент Магнет ссылка Смотреть онлайн
Скачать торрент
[ Размер 16 КБ / Просмотров 4 ]
Статус:
Проверен
---
.torrent скачан: 1 раз
Приватный: Да (DHT отключён)
Размер: 5.84 ГБ (6 272 157 696)
   
Аватара пользователя
Denny
 
Раздал: 7.49 ТБ
Скачал: 807.97 ГБ
Ратио: 1007.499
Сообщения: 1934
Зарегистрирован: Ноябрь 19, 2012, 10:49 pm
Откуда: Россия

Флаг страны: Russia

  • Похожие торренты
    Ответы
    Просмотры
    Последнее сообщение

Вернуться в Сериалы



Кто сейчас на конференции

Сейчас эту тему просматривают: нет зарегистрированных пользователей и гости: 1

Ресурс не содержит никакой другой информации, кроме описаний отдельных файлов или их групп, имеющихся у некоторых пользователей данного ресурса. Подтверждением наличия данных файлов у пользователя может иногда являться специальный набор значений, представляющих собой результаты применения односторонних хеш-функций к этим файлам или их группам. Данные наборы значений объединяются пользователями в единое целое и могут быть выложены ими вместе с описаниями имеющихся у них файлов. Администрация данного ресурса не имеет физической возможности убедиться, что описания файлов, выложенные нашими пользователями, равно как и созданные ими наборы хешей от файлов, соответствуют реальным файлам имеющимся у пользователей, а не созданы каким-либо иным способом.
cron
Яндекс.Метрика