Я закопаю тебя / Je te survivrai (Сильвестр Сбилье / Sylvestre Sbille) [2014, Бельгия, Франция, комедия, WEBRip] MVO

Фильмы в формате WEBRip/Avi и т.д.
 Статистика раздачи 
Размер: 1.37 ГБ   |  Зарегистрирован: Июль 3, 2014, 5:51 pm   |   .torrent скачан: 6 раз
Сидеров: 13  [ 0 байт/сек ]   Личеров: 30  [ 0 байт/сек ]  

Я закопаю тебя / Je te survivrai (Сильвестр Сбилье / Sylvestre Sbille) [2014, Бельгия, Франция, комедия, WEBRip] MVO

Сообщение Denny » Июль 3, 2014, 5:53 pm



Я закопаю тебя
Je te survivra


Год выпуска: 2014
Производство: Бельгия, Франция
Жанр: комедия
Перевод: Профессиональный (многоголосый закадровый)
Субтитры: Отсутствуют
Оригинальная дорожка: Отсутствует
Продолжительность: 01:28:09
Режиссер: Сильвестр Сбилье
В ролях: Джонатан Цассаи, Бен Рига, Лорен Капеллуто, Таня Гарбарски, Давид Муржиа, Марго Леду, Эмма Дюпон, Пьер Хендрикс

Описание: Джо совершенно невыносимый, но обаятельный агент по продаже недвижимости — гениален в своем деле, может продать сарай по цене особняка эпохи Возрождения. Едва Джо перебирается в тихий домик загород и у него наступает спокойное затишье, в его размеренную жизнь врывается вздорная старушка-соседка с выводком блохастых кошек и постоянными истериками по утрам и вечерам. В довершение всего, Джо ненавидит вредную соседку ровно так же, как и она его. Решив разделаться со старухой, Джо сталкивается с неожиданным препятствием — бабушка, судя по всему, бессмертна.

Качество видео: WEBRip
Видеокодек: XviD
Аудиокодек: AC3
Видео: 720x304 (2.37:1), 30 fps, XviD build 50, 2018 kbps avg, 0.31 bit/pixel
Аудио: 48 kHz, AC3 Dolby Digital, 2/0 (L,R) ch, 192 kbps

Общее
Полное имя : Ya.zakopau.tebya.WEBRip.avi
Формат : AVI
Формат/Информация : Audio Video Interleave
Размер файла : 1,37 Гбайт
Продолжительность : 1 ч. 28 м.
Общий поток : 2222 Кбит/сек
Программа кодирования : VirtualDubMod 1.5.10.3 |http://www.virtualdub-fr.org || (build 2550/release)
Библиотека кодирования : VirtualDubMod build 2550/release
Видео
Идентификатор : 0
Формат : MPEG-4 Visual
Профиль формата : Advanced Simple@L5
Параметр BVOP формата : 2
Параметр QPel формата : Нет
Параметр GMC формата : Без точки перехода
Параметр матрицы формата : Default (MPEG)
Идентификатор кодека : XVID
Идентификатор кодека/Подсказка : XviD
Продолжительность : 1 ч. 28 м.
Битрейт : 2018 Кбит/сек
Ширина : 720 пикселей
Высота : 304 пикселя
Соотношение сторон : 2,35:1
Частота кадров : 30,000 кадров/сек
Цветовое пространство : YUV
Субдискретизация насыщенности : 4:2:0
Битовая глубина : 8 бит
Тип развёртки : Прогрессивная
Метод сжатия : С потерями
Бит/(Пиксели*Кадры) : 0.307
Размер потока : 1,24 Гбайт (91%)
Библиотека кодирования : XviD 1.2.1 (UTC 2008-12-04)
Аудио
Идентификатор : 1
Формат : AC-3
Формат/Информация : Audio Coding 3
Расширение режима : CM (complete main)
Параметр Endianness формата : Big
Идентификатор кодека : 2000
Продолжительность : 1 ч. 28 м.
Вид битрейта : Постоянный
Битрейт : 192 Кбит/сек
Каналы : 2 канала
Расположение каналов : Front: L R
Частота : 48,0 КГц
Битовая глубина : 16 бит
Метод сжатия : С потерями
Размер потока : 121 Мбайт (9%)
Выравнивание : Разделение по промежуткам
Продолжительность промежутка : 33 мс. (1,00 видеокадр)
Время предзагрузки промежутка : 500 мс.



   
Торрент: Зарегистрирован [Июль 3, 2014, 5:51 pm]
Видео WEBRip Скачать торрент Магнет ссылка Смотреть онлайн
Скачать торрент
[ Размер 14.28 КБ / Просмотров 10 ]
Статус:
Проверен
---
.torrent скачан: 6 раз
Приватный: Нет (DHT включён)
Размер: 1.37 ГБ (1 468 450 816)
   
Аватара пользователя
Denny
 
Раздал: 7.49 ТБ
Скачал: 807.97 ГБ
Ратио: 1007.499
Сообщения: 1934
Зарегистрирован: Ноябрь 19, 2012, 10:49 pm
Откуда: Россия

Флаг страны: Russia

  • Похожие торренты
    Ответы
    Просмотры
    Последнее сообщение

Вернуться в Видео WEBRip



Кто сейчас на конференции

Сейчас эту тему просматривают: нет зарегистрированных пользователей и гости: 1

Ресурс не содержит никакой другой информации, кроме описаний отдельных файлов или их групп, имеющихся у некоторых пользователей данного ресурса. Подтверждением наличия данных файлов у пользователя может иногда являться специальный набор значений, представляющих собой результаты применения односторонних хеш-функций к этим файлам или их группам. Данные наборы значений объединяются пользователями в единое целое и могут быть выложены ими вместе с описаниями имеющихся у них файлов. Администрация данного ресурса не имеет физической возможности убедиться, что описания файлов, выложенные нашими пользователями, равно как и созданные ими наборы хешей от файлов, соответствуют реальным файлам имеющимся у пользователей, а не созданы каким-либо иным способом.
cron
Яндекс.Метрика