Как развести миллионера [01-04 из 04] (2014) HDTVRip от Files-x

Отечественные и зарубежные сериалы
 Статистика раздачи 
Размер: 2.15 ГБ   |  Зарегистрирован: Июль 19, 2014, 9:17 am   |   .torrent скачан: 136 раз
Сидеров: 188  [ 0 байт/сек ]   Личеров: 17  [ 0 байт/сек ]  

Как развести миллионера [01-04 из 04] (2014) HDTVRip от Files-x

Сообщение sergey » Июль 19, 2014, 9:17 am

Информация о фильме
Оригинальное название: Как развести миллионера
Год выпуска: 2014
Жанр: Комедия
Режиссер: Василий Мищенко
В ролях: Михаил Шкловский, Вера Баханкова, Александр Сибирцев, Иван Лапин, Нелли Неведина, Василий Мищенко, Денис Ясик, Ирина Лосева, Ульяна Лаптева, София Елфимова, Ирина Цывина
О фильме: Богатый и избалованный Кирилл Торопов заключает с друзьями пари: он очарует и приведет в ЗАГС пять невест, но все они его бросят, как только узнают, что он нищий. Так и происходит, но в пятую невесту, Нину, Торопов неожиданно для себя влюбляется. Однако Нина узнает о пари..

Выпущено: Россия, АРК-Фильм
Продолжительность: 4 х 00:43:00
Перевод: не требуется

Файл
Кодек: XviD
Качество: HDTVRip
Видео: 720x400 (1.80:1), 25 fps, XviD build 50 ~1548 kbps avg, 0.22 bit/pixel
Аудио: 48 kHz, AC3 Dolby Digital, 2/0 (L,R) ch, ~192.00 kbps avg
General
Complete name : Z:раздачиKak.razvesti.millionera.2014.HDTVRip.RG.Russkie.serialy.&.Files-xKak.razvesti.millionera.01.seriya.2014.HDTVRip.RG.Russkie.serialy.&.Files-x.avi
Format : AVI
Format/Info : Audio Video Interleave
File size : 550 MiB
Duration : 43mn 48s
Overall bit rate : 1 755 Kbps
Writing application : VirtualDubMod 1.5.10.3 | www.virtualdub-fr.org || (build 2550/release)
Writing library : VirtualDubMod build 2550/release

Video
ID : 0
Format : MPEG-4 Visual
Format profile : Advanced Simple@L5
Format settings, BVOP : 1
Format settings, QPel : No
Format settings, GMC : No warppoints
Format settings, Matrix : Default (H.263)
Codec ID : XVID
Codec ID/Hint : XviD
Duration : 43mn 48s
Bit rate : 1 553 Kbps
Width : 720 pixels
Height : 400 pixels
Display aspect ratio : 16:9
Frame rate : 25.000 fps
Color space : YUV
Chroma subsampling : 4:2:0
Bit depth : 8 bits
Scan type : Progressive
Compression mode : Lossy
Bits/(Pixel*Frame) : 0.216
Stream size : 487 MiB (89%)
Writing library : XviD 1.2.1 (UTC 2008-12-04)

Audio
ID : 1
Format : AC-3
Format/Info : Audio Coding 3
Mode extension : CM (complete main)
Format settings, Endianness : Big
Codec ID : 2000
Duration : 43mn 48s
Bit rate mode : Constant
Bit rate : 192 Kbps
Channel(s) : 2 channels
Channel positions : Front: L R
Sampling rate : 48.0 KHz
Bit depth : 16 bits
Compression mode : Lossy
Stream size : 60.2 MiB (11%)
Alignment : Split accross interleaves
Interleave, duration : 40 ms (1.00 video frame)
Interleave, preload duration : 500 ms




Сэмпл
Релиз от:
   
Торрент: Зарегистрирован [Июль 19, 2014, 9:17 am]
Сериалы Скачать торрент Магнет ссылка Смотреть онлайн
Скачать торрент
[ Размер 11.91 КБ / Просмотров 0 ]
Статус:
Проверен
---
.torrent скачан: 136 раз
Приватный: Нет (DHT включён)
Размер: 2.15 ГБ (2 306 699 264)
   
Аватара пользователя
sergey
 
Раздал: 42.54 ТБ
Скачал: 198.69 ГБ
Ратио: 265.234
Сообщения: 5343
Зарегистрирован: Август 6, 2012, 2:11 pm
Откуда: СССР

Флаг страны: СССР

  • Похожие торренты
    Ответы
    Просмотры
    Последнее сообщение

Вернуться в Сериалы



Кто сейчас на конференции

Сейчас эту тему просматривают: нет зарегистрированных пользователей и гости: 1

Ресурс не содержит никакой другой информации, кроме описаний отдельных файлов или их групп, имеющихся у некоторых пользователей данного ресурса. Подтверждением наличия данных файлов у пользователя может иногда являться специальный набор значений, представляющих собой результаты применения односторонних хеш-функций к этим файлам или их группам. Данные наборы значений объединяются пользователями в единое целое и могут быть выложены ими вместе с описаниями имеющихся у них файлов. Администрация данного ресурса не имеет физической возможности убедиться, что описания файлов, выложенные нашими пользователями, равно как и созданные ими наборы хешей от файлов, соответствуют реальным файлам имеющимся у пользователей, а не созданы каким-либо иным способом.
cron
Яндекс.Метрика