Прости меня, мама / Бандит [01-16 из 16] (2014) WEB-DLRip

Отечественные и зарубежные сериалы
 Статистика раздачи 
Размер: 8.59 ГБ   |  Зарегистрирован: Июль 30, 2014, 8:34 pm   |   .torrent скачан: 32 раз
Сидеров: 824  [ 0 байт/сек ]   Личеров: 277  [ 0 байт/сек ]  

Прости меня, мама / Бандит [01-16 из 16] (2014) WEB-DLRip

Сообщение Denny » Июль 30, 2014, 8:34 pm



Информация о фильме
Оригинальное название: Прости меня, мама (Бандит)
Год выхода: 2014
Жанр: Драма
Режиссер: Егор Грамматиков
В ролях: Владимир Яглыч, Евгения Туркова, Александра Мареева, Сергей Селин, Алексей Ильин, Кирилл Нагиев, Елена Лотова, Наталья Рычкова, Вячеслав Шихалеев, Олег Соколдынский, Антон Ксенев, Екатерина Александрушкина, Роман Агеев, Николай Точилин, Илья Ильин, Борис Миронов, Юлия Бурова, Денис Давыдов, Василий Щипицын, Дмитрий Медведев, Юрий Тарасов, Сергей Барабаш, Анна Казючиц, Юрий Яфаев, Антон Момот, Денис Старков, Елена Муравьёва, Елена Махова, Анна Ходюш, Алексей Франдетти, Александр Усердин, Антон Васильев (III), Сергей Беляев, Илья Ловкий, Дмитрий Родонов

О фильме:
Действие сериала начинается в сложный для России исторический период — начало 90-х. Главного героя картины осуждают за несовершенное преступление, в наши дни он выходит из тюрьмы и пытается доказать, что был осужден несправедливо…

Страна: Россия
Студия: "Свэлл Фильм"
Продолжительность: 16 х ~ 00:45:00
Язык: Русский

Файл
Кодек: XviD
Качество: WEB-DLRip
Видео: 720x400 (16:9), 25.000 fps, XviD build 50 ~ 1550 kbps avg, 0.226 bit/pixel
Звук: 48 kHz, AC3 Dolby Digital, 2/0 (L,R) ch, ~192 kbps

Complete name: Prosti.menia.mama.2014.WEB-DLRipProsti.menia.mama.(09.seriya).2014.WEB-DLRip.avi
Format : AVI
Format/Info : Audio Video Interleave
File size : 550 MiB
Duration : 43mn 32s
Overall bit rate : 1 765 Kbps
Writing application : VirtualDubMod 1.5.10.2 (build 2540/release)
Writing library : VirtualDubMod build 2540/release

Video
ID : 0
Format : MPEG-4 Visual
Format profile : Advanced Simple@L5
Format settings, BVOP : 1
Format settings, QPel : No
Format settings, GMC : No warppoints
Format settings, Matrix : Custom
Codec ID : XVID
Codec ID/Hint : XviD
Duration : 43mn 32s
Bit rate : 1 563 Kbps
Width : 720 pixels
Height : 400 pixels
Display aspect ratio : 16:9
Frame rate : 25.000 fps
Color space : YUV
Chroma subsampling : 4:2:0
Bit depth : 8 bits
Scan type : Progressive
Compression mode : Lossy
Bits/(Pixel*Frame) : 0.217
Stream size : 487 MiB (89%)
Writing library : XviD 1.2.1 (UTC 2008-12-04)

Audio
ID : 1
Format : AC-3
Format/Info : Audio Coding 3
Mode extension : CM (complete main)
Format settings, Endianness : Big
Codec ID : 2000
Duration : 43mn 32s
Bit rate mode : Constant
Bit rate : 192 Kbps
Channel(s) : 2 channels
Channel positions : Front: L R
Sampling rate : 48.0 KHz
Bit depth : 16 bits
Compression mode : Lossy
Stream size : 59.8 MiB (11%)
Alignment : Split accross interleaves
Interleave, duration : 40 ms (1.00 video frame)
Interleave, preload duration : 500 ms


   
Торрент: Зарегистрирован [Июль 30, 2014, 8:34 pm]
Сериалы Скачать торрент Магнет ссылка Смотреть онлайн
Скачать торрент
[ Размер 44.68 КБ / Просмотров 3 ]
Статус:
Проверен
---
.torrent скачан: 32 раз
Приватный: Нет (DHT включён)
Размер: 8.59 ГБ (9 219 860 480)
   
Аватара пользователя
Denny
 
Раздал: 7.49 ТБ
Скачал: 807.97 ГБ
Ратио: 1007.499
Сообщения: 1934
Зарегистрирован: Ноябрь 19, 2012, 10:49 pm
Откуда: Россия

Флаг страны: Russia

  • Похожие торренты
    Ответы
    Просмотры
    Последнее сообщение

Вернуться в Сериалы



Кто сейчас на конференции

Сейчас эту тему просматривают: нет зарегистрированных пользователей и гости: 1

Ресурс не содержит никакой другой информации, кроме описаний отдельных файлов или их групп, имеющихся у некоторых пользователей данного ресурса. Подтверждением наличия данных файлов у пользователя может иногда являться специальный набор значений, представляющих собой результаты применения односторонних хеш-функций к этим файлам или их группам. Данные наборы значений объединяются пользователями в единое целое и могут быть выложены ими вместе с описаниями имеющихся у них файлов. Администрация данного ресурса не имеет физической возможности убедиться, что описания файлов, выложенные нашими пользователями, равно как и созданные ими наборы хешей от файлов, соответствуют реальным файлам имеющимся у пользователей, а не созданы каким-либо иным способом.
cron
Яндекс.Метрика