Примесь / Upstream Color (2013) HDRip

Фильмы в формате DVD
 Статистика раздачи 
Размер: 1.3 ГБ   |  Зарегистрирован: Июль 31, 2014, 4:37 pm   |   .torrent скачан: 0 раз
Сидеров: 2  [ 0 байт/сек ]   Личеров: 1  [ 0 байт/сек ]  

Примесь / Upstream Color (2013) HDRip

Сообщение sergey » Июль 31, 2014, 4:37 pm

Примесь / Upstream Color (2013) HDRip

Год выпуска: 2013
Жанр: Драма

Описание фильма:
Фильм рассказывает о двух людях, жизнь и поведение которых — о чём они не знают — находится под воздействием сложного паразита, жизненный цикл которого состоит из трёх фаз. Он проходит по замкнутому циклу из людей в свиней, затем в орхидеи и снова в людей

Режиссер: Шэйн Кэррат
Актеры: Эми Саймец, Шэйн Кэррат, Эндрю Сенсениг, Тьяго Мартинс, Кэти Кэррат, Мередит Бурк, Андреон Уотсон

Продолжительность: 1:36:02
Качество видео: HDRip
Перевод: Двуголосый закадровый



Дата мировой премьеры: 21.01.13

Видеокодек: Xvid
Битрейт видео: ~1699 kb/s
Размер кадра: 720х304
Аудио: MP3, 44,1 kHz, 2 ch, 224 kb/s

Общее
Полное имя : D:\cinema\Upstream.Color.2013.avi
Формат : AVI
Формат/Информация : Audio Video Interleave
Размер файла : 1,30 Гбайт
Продолжительность : 1 ч. 36 м.
Общий поток : 1932 Кбит/сек
Программа кодирования : VirtualDubMod 1.5.10.2 (build 2540/release)
Библиотека кодирования : VirtualDub build 32706/release

Видео
Идентификатор : 0
Формат : MPEG-4 Visual
Профиль формата : Advanced Simple@L5
Параметр BVOP формата : 2
Параметр QPel формата : Нет
Параметр GMC формата : Без точки перехода
Параметр матрицы формата : Default (H.263)
Режим смешивания : Сжатый битовый поток
Идентификатор кодека : XVID
Идентификатор кодека/Подсказка : XviD
Продолжительность : 1 ч. 36 м.
Битрейт : 1699 Кбит/сек
Ширина : 720 пикселей
Высота : 304 пикселя
Соотношение сторон : 2,35:1
Частота кадров : 23,976 кадра/сек
Цветовое пространство : YUV
Субдискретизация насыщенности : 4:2:0
Битовая глубина : 8 бит
Тип развёртки : Прогрессивная
Метод сжатия : С потерями
Бит/(Пиксели*Кадры) : 0.324
Размер потока : 1,14 Гбайт (88%)
Библиотека кодирования : XviD 64

Аудио
Идентификатор : 1
Формат : MPEG Audio
Версия формата : Version 1
Профиль формата : Layer 3
Идентификатор кодека : 55
Идентификатор кодека/Подсказка : MP3
Продолжительность : 1 ч. 36 м.
Вид битрейта : Постоянный
Битрейт : 224 Кбит/сек
Каналы : 2 канала
Частота : 44,1 КГц
Метод сжатия : С потерями
Задержка видео : 26 мс.
Размер потока : 154 Мбайт (12%)
Выравнивание : Разделение по промежуткам
Продолжительность промежутка : 42 мс. (1,00 видеокадр)
Время предзагрузки промежутка : 500 мс.
Библиотека кодирования : LAME3.93
Скриншоты:

   
Торрент: Зарегистрирован [Июль 31, 2014, 4:37 pm]
Видео DVD Скачать торрент Магнет ссылка Смотреть онлайн
Скачать торрент
[ Размер 13.63 КБ / Просмотров 0 ]
Статус:
Проверен
---
.torrent скачан: 0 раз
Приватный: Нет (DHT включён)
Размер: 1.3 ГБ (1 391 872 392)
   
Аватара пользователя
sergey
 
Раздал: 42.54 ТБ
Скачал: 198.69 ГБ
Ратио: 265.234
Сообщения: 5347
Зарегистрирован: Август 6, 2012, 2:11 pm
Откуда: СССР

Флаг страны: СССР

  • Похожие торренты
    Ответы
    Просмотры
    Последнее сообщение

Вернуться в Видео DVD



Кто сейчас на конференции

Сейчас эту тему просматривают: нет зарегистрированных пользователей и гости: 1

Ресурс не содержит никакой другой информации, кроме описаний отдельных файлов или их групп, имеющихся у некоторых пользователей данного ресурса. Подтверждением наличия данных файлов у пользователя может иногда являться специальный набор значений, представляющих собой результаты применения односторонних хеш-функций к этим файлам или их группам. Данные наборы значений объединяются пользователями в единое целое и могут быть выложены ими вместе с описаниями имеющихся у них файлов. Администрация данного ресурса не имеет физической возможности убедиться, что описания файлов, выложенные нашими пользователями, равно как и созданные ими наборы хешей от файлов, соответствуют реальным файлам имеющимся у пользователей, а не созданы каким-либо иным способом.
cron
Яндекс.Метрика