Молот Бога / Cross Bearer (2012) HDRip

Фильмы в формате DVD
 Статистика раздачи 
Размер: 1.14 ГБ   |  Зарегистрирован: Июль 31, 2014, 4:43 pm   |   .torrent скачан: 1 раз
Сидеров: 27  [ 0 байт/сек ]   Личеров: 6  [ 0 байт/сек ]  

Молот Бога / Cross Bearer (2012) HDRip

Сообщение sergey » Июль 31, 2014, 4:43 pm

Молот Бога / Cross Bearer (2012) HDRip

« The Hammer of God »
Год выпуска: 2012
Производство: США | Adversary Films, Backseat Conceptions
Жанр: Ужасы

Описание фильма:
В закрытом после перестрелки и пожара на реконструкцию здании оказываются вместе несколько проституток, сутенёр, наркоманы и тот, кто уже идёт очистить их души от порока и скверны. Кто он? Бич Божий или посланник из самого сердца тьмы. Но он несёт свой крест и удары его молотка и есть наше прощение.

Режиссер: Адам Албрандт
Актеры: Исаак Уильямс, Виктория ДеПол, Тим Кронин, Дж.Д. Браун, Шон Пол Костельо, Келси Леман

Продолжительность: 01:13:03
Качество видео: HDRip
Перевод: Любительский (одноголосый, закадровый)
Автор перевода: den904
Внимание: Присутствует ненормативная лексика!
Язык субтитров: Отсутствуют



Видео: 720x400 (16:9), 23.976 fps, XviD build 50 ~2029 kbps avg, 0.294 bit/pixel
Аудио: 48 kHz, AC3 Dolby Digital, 2/0 (L,R) ch, ~192 kbps | Русский VO
Сэмпл: Скачать
Код:
Код: Выделить всё
General
Complete name                  : D:\фильмы\Molot.boga.2012.HDRip.avi
Format                         : AVI
Format/Info                    : Audio Video Interleave
File size                      : 1.37 GiB
Duration                       : 1h 13mn
Overall bit rate               : 2 683 Kbps
Writing application            : VirtualDubMod 1.5.10.2 (build 2540/release)
Writing library                : VirtualDubMod build 2540/release

Video
ID                             : 0
Format                         : MPEG-4 Visual
Format profile                 : Advanced Simple@L5
Format settings, BVOP          : Yes
Format settings, QPel          : No
Format settings, GMC           : No warppoints
Format settings, Matrix        : Default (MPEG)
Codec ID                       : XVID
Codec ID/Hint                  : XviD
Duration                       : 1h 13mn
Bit rate                       : 2 029 Kbps
Width                          : 720 pixels
Height                         : 400 pixels
Display aspect ratio           : 16:9
Frame rate                     : 23.976 fps
Color space                    : YUV
Chroma subsampling             : 4:2:0
Bit depth                      : 8 bits
Scan type                      : Progressive
Compression mode               : Lossy
Bits/(Pixel*Frame)             : 0.294
Stream size                    : 1.04 GiB (76%)
Writing library                : XviD 1.2.1 (UTC 2008-12-04)

Audio #1
ID                             : 1
Format                         : AC-3
Format/Info                    : Audio Coding 3
Mode extension                 : CM (complete main)
Format settings, Endianness    : Big
Codec ID                       : 2000
Duration                       : 1h 13mn
Bit rate mode                  : Constant
Bit rate                       : 192 Kbps
Channel(s)                     : 2 channels
Channel positions              : Front: L R
Sampling rate                  : 48.0 KHz
Bit depth                      : 16 bits
Compression mode               : Lossy
Stream size                    : 100 MiB (7%)
Alignment                      : Split accross interleaves
Interleave, duration           : 42 ms (1.00 video frame)
Interleave, preload duration   : 500 ms

Audio #2
ID                             : 2
Format                         : AC-3
Format/Info                    : Audio Coding 3
Mode extension                 : CM (complete main)
Format settings, Endianness    : Big
Codec ID                       : 2000
Duration                       : 1h 13mn
Bit rate mode                  : Constant
Bit rate                       : 448 Kbps
Channel(s)                     : 2 channels
Channel positions              : Front: L R
Sampling rate                  : 48.0 KHz
Bit depth                      : 16 bits
Compression mode               : Lossy
Stream size                    : 234 MiB (17%)
Alignment                      : Split accross interleaves
Interleave, duration           : 42 ms (1.00 video frame)
Interleave, preload duration   : 500 ms
Скриншоты:

   
Торрент: Зарегистрирован [Июль 31, 2014, 4:43 pm]
Видео DVD Скачать торрент Магнет ссылка Смотреть онлайн
Скачать торрент
[ Размер 12.16 КБ / Просмотров 1 ]
Статус:
Проверен
---
.torrent скачан: 1 раз
Приватный: Нет (DHT включён)
Размер: 1.14 ГБ (1 222 031 360)
   
Аватара пользователя
sergey
 
Раздал: 42.54 ТБ
Скачал: 198.69 ГБ
Ратио: 265.234
Сообщения: 5347
Зарегистрирован: Август 6, 2012, 2:11 pm
Откуда: СССР

Флаг страны: СССР

  • Похожие торренты
    Ответы
    Просмотры
    Последнее сообщение

Вернуться в Видео DVD



Кто сейчас на конференции

Сейчас эту тему просматривают: нет зарегистрированных пользователей и гости: 1

Ресурс не содержит никакой другой информации, кроме описаний отдельных файлов или их групп, имеющихся у некоторых пользователей данного ресурса. Подтверждением наличия данных файлов у пользователя может иногда являться специальный набор значений, представляющих собой результаты применения односторонних хеш-функций к этим файлам или их группам. Данные наборы значений объединяются пользователями в единое целое и могут быть выложены ими вместе с описаниями имеющихся у них файлов. Администрация данного ресурса не имеет физической возможности убедиться, что описания файлов, выложенные нашими пользователями, равно как и созданные ими наборы хешей от файлов, соответствуют реальным файлам имеющимся у пользователей, а не созданы каким-либо иным способом.
cron
Яндекс.Метрика