Первый мститель: Другая война / Captain America: The Winter Soldier (2014) BDRip-AVC от MediaClub | D | Лицензия

Фильмы высокого разрешения в формате HDTV
 Статистика раздачи 
Размер: 2.56 ГБ   |  Зарегистрирован: Август 2, 2014, 9:25 pm   |   .torrent скачан: 23 раз
Сидеров: 4627  [ 0 байт/сек ]   Личеров: 1539  [ 0 байт/сек ]  

Первый мститель: Другая война / Captain America: The Winter Soldier (2014) BDRip-AVC от MediaClub | D | Лицензия

Сообщение Denny » Август 2, 2014, 9:25 pm



Информация о фильме
Название: Первый мститель: Другая война
Оригинальное название: Captain America: The Winter Soldier
Год выпуска: 2014
Жанр: Фантастика, боевик, приключения
Режиссер: Энтони Руссо, Джо Руссо, Джосс Уидон
В ролях: Крис Эванс, Скарлетт Йоханссон, Роберт Редфорд, Сэмюэл Л. Джексон, Себастьян Стэн, Энтони Маки, Коби Смолдерс, Фрэнк Грилло, Максимилиано Эрнандес, Эмили ВанКэмп

Описание: После беспрецедентных событий, впервые собравших вместе команду Мстителей, Стив Роджерс, известный также как Капитан Америка, оседает в Вашингтоне и пытается приспособиться к жизни в современном мире. Но покой этому герою только снится — пытаясь помочь коллеге из агентства Щ. И. Т, Стив оказывается в центре событий, грозящих катастрофой мирового масштаба. Для того, чтобы разоблачить злодейский заговор, Капитан Америка объединяется с Черной вдовой. К ним также присоединяется новый соратник, известный как Ястреб, однако никто из них даже не подозревает, на что способен новый враг.

Выпущено: США / Marvel Entertainment, Marvel Studios
Продолжительность: 02:15:54
Перевод: Дублированный

Файл
Качество: BDRip (AVC)
Видео: MPEG-4 AVC, 1800 Кбит/с, 1024x426, 23.976 кадр/с
Аудио #1: Русский (AC3, 6 ch, 448 Кбит/с) / Дублированный (Blu-ray EUR)
Аудио #2: Английский (AC3,  6 ch, 448 Кбит/с)
Субтитры: Русские (форсированные, полные), аглийские




x264 [info]: frame I:1609 Avg QP:14.65 size: 60001
x264 [info]: frame P:53563 Avg QP:19.01 size: 17896
x264 [info]: frame B:140333 Avg QP:20.16 size: 5554
x264 [info]: consecutive B-frames: 6.8% 6.9% 13.7% 18.3% 15.6% 24.8% 5.2% 1.5% 1.8% 1.2% 1.0% 0.5% 0.8% 1.0% 0.8%
*********************************************************************************************************************************************
Общее
Уникальный идентификатор : 249492870029846986602517449124900931492 (0xBBB29434C455C01DBDF43FDDBA7687A4)
Полное имя : Pervyi.mstitel.Drugaya.voina.2014.BDRip.(AVC)-MediaClub.mkv
Формат : Matroska
Версия формата : Version 4 / Version 2
Размер файла : 2,56 Гбайт
Продолжительность : 2 ч. 15 м.
Общий поток : 2698 Кбит/сек
Название фильма : -=MediaClub-kaspr=-
Дата кодирования : UTC 2014-08-01 13:34:59
Программа кодирования : mkvmerge v6.9.1 ('Blue Panther') 64bit built on Apr 18 2014 18:23:38
Библиотека кодирования : libebml v1.3.0 + libmatroska v1.4.1

Видео
Идентификатор : 1
Формат : AVC
Формат/Информация : Advanced Video Codec
Профиль формата : High@L4.1
Параметр CABAC формата : Да
Параметр ReFrames формата : 10 кадров
Идентификатор кодека : V_MPEG4/ISO/AVC
Продолжительность : 2 ч. 15 м.
Битрейт : 1800 Кбит/сек
Ширина : 1024 пикселя
Высота : 426 пикселей
Соотношение сторон : 2,40:1
Режим частоты кадров : Постоянный
Частота кадров : 23,976 кадра/сек
Цветовое пространство : YUV
Субдискретизация насыщенности : 4:2:0
Битовая глубина : 8 бит
Тип развёртки : Прогрессивная
Бит/(Пиксели*Кадры) : 0.172
Размер потока : 1,66 Гбайт (65%)
Заголовок : -=MediaClub-kaspr=-
Библиотека кодирования : x264 core 142 r2431+42 c69a006 tMod [8-bit@4:2:0 X86_64]
Настройки программы : cabac=1 / ref=10 / deblock=1:-3:-3 / analyse=0x3:0x113 / me=umh / subme=11 / psy=1 / fade_compensate=0.00 / psy_rd=1.00:0.20 / mixed_ref=1 / me_range=32 / chroma_me=1 / trellis=2 / 8x8dct=1 / cqm=0 / deadzone=21,11 / fast_pskip=0 / chroma_qp_offset=-3 / threads=12 / lookahead_threads=3 / sliced_threads=0 / nr=0 / decimate=0 / interlaced=0 / bluray_compat=0 / constrained_intra=0 / fgo=0 / bframes=14 / b_pyramid=2 / b_adapt=2 / b_bias=0 / direct=3 / weightb=1 / open_gop=0 / weightp=2 / keyint=240 / keyint_min=23 / scenecut=40 / intra_refresh=0 / rc=2pass / mbtree=0 / bitrate=1800 / ratetol=1.0 / qcomp=0.60 / qpmin=0:0:0 / qpmax=69:69:69 / qpstep=4 / cplxblur=20.0 / qblur=0.5 / ip_ratio=1.40 / pb_ratio=1.30 / aq=4:0.80 / aq-sensitivity=10.00 / aq-factor=1.00:1.00:1.00 / aq2=0 / aq3=0
Default : Да
Forced : Да

Аудио #1
Идентификатор : 2
Формат : AC-3
Формат/Информация : Audio Coding 3
Расширение режима : CM (complete main)
Параметр Endianness формата : Big
Идентификатор кодека : A_AC3
Продолжительность : 2 ч. 15 м.
Вид битрейта : Постоянный
Битрейт : 448 Кбит/сек
Каналы : 6 каналов
Расположение каналов : Front: L C R, Side: L R, LFE
Частота : 48,0 КГц
Битовая глубина : 16 бит
Метод сжатия : С потерями
Размер потока : 435 Мбайт (17%)
Заголовок : Dub
Язык : Russian
Default : Да
Forced : Да

Аудио #2
Идентификатор : 3
Формат : AC-3
Формат/Информация : Audio Coding 3
Расширение режима : CM (complete main)
Параметр Endianness формата : Big
Идентификатор кодека : A_AC3
Продолжительность : 2 ч. 15 м.
Вид битрейта : Постоянный
Битрейт : 448 Кбит/сек
Каналы : 6 каналов
Расположение каналов : Front: L C R, Side: L R, LFE
Частота : 48,0 КГц
Битовая глубина : 16 бит
Метод сжатия : С потерями
Размер потока : 435 Мбайт (17%)
Язык : English
Default : Нет
Forced : Нет

Текст #1
Идентификатор : 4
Формат : UTF-8
Идентификатор кодека : S_TEXT/UTF8
Идентификатор кодека/Информация : UTF-8 Plain Text
Заголовок : Forced
Язык : Russian
Default : Да
Forced : Нет

Текст #2
Идентификатор : 5
Формат : UTF-8
Идентификатор кодека : S_TEXT/UTF8
Идентификатор кодека/Информация : UTF-8 Plain Text
Заголовок : Full
Язык : Russian
Default : Нет
Forced : Нет

Текст #3
Идентификатор : 6
Формат : UTF-8
Идентификатор кодека : S_TEXT/UTF8
Идентификатор кодека/Информация : UTF-8 Plain Text
Заголовок : Full
Язык : English
Default : Нет
Forced : Нет

Меню
00:00:00.000 : en:Chapter 01
00:03:28.666 : en:Chapter 02
00:13:31.727 : en:Chapter 03
00:17:57.868 : en:Chapter 04
00:22:25.302 : en:Chapter 05
00:33:20.415 : en:Chapter 06
00:41:27.276 : en:Chapter 07
00:51:37.302 : en:Chapter 08
00:58:23.958 : en:Chapter 09
01:07:40.347 : en:Chapter 10
01:16:22.202 : en:Chapter 11
01:24:43.078 : en:Chapter 12
01:32:17.698 : en:Chapter 13
01:37:06.612 : en:Chapter 14
01:49:13.088 : en:Chapter 15
01:55:03.730 : en:Chapter 16
02:01:11.055 : en:Chapter 17
02:06:22.241 : en:Chapter 18


Релиз: |
   
Торрент: Зарегистрирован [Август 2, 2014, 9:25 pm]
Видео HDTV Скачать торрент Магнет ссылка Смотреть онлайн
Скачать торрент
[ Размер 13.48 КБ / Просмотров 11 ]
Статус:
Проверен
---
.torrent скачан: 23 раз
Приватный: Нет (DHT включён)
Размер: 2.56 ГБ (2 750 036 277)
   
Аватара пользователя
Denny
 
Раздал: 7.49 ТБ
Скачал: 807.97 ГБ
Ратио: 1007.499
Сообщения: 1934
Зарегистрирован: Ноябрь 19, 2012, 10:49 pm
Откуда: Россия

Флаг страны: Russia

Вернуться в Видео HDTV



Кто сейчас на конференции

Сейчас эту тему просматривают: нет зарегистрированных пользователей и гости: 1

Ресурс не содержит никакой другой информации, кроме описаний отдельных файлов или их групп, имеющихся у некоторых пользователей данного ресурса. Подтверждением наличия данных файлов у пользователя может иногда являться специальный набор значений, представляющих собой результаты применения односторонних хеш-функций к этим файлам или их группам. Данные наборы значений объединяются пользователями в единое целое и могут быть выложены ими вместе с описаниями имеющихся у них файлов. Администрация данного ресурса не имеет физической возможности убедиться, что описания файлов, выложенные нашими пользователями, равно как и созданные ими наборы хешей от файлов, соответствуют реальным файлам имеющимся у пользователей, а не созданы каким-либо иным способом.
cron
Яндекс.Метрика