Побеждая время / Hours (2013) HDRip от New-Team | P | лицензия

Фильмы в формате DVD
 Статистика раздачи 
Размер: 1.46 ГБ   |  Зарегистрирован: Август 17, 2014, 2:01 pm   |   .torrent скачан: 1850 раз
Сидеров: 1182  [ 0 байт/сек ]   Личеров: 295  [ 0 байт/сек ]  

Побеждая время / Hours (2013) HDRip от New-Team | P | лицензия

Сообщение Denny » Август 17, 2014, 2:01 pm



«Every second counts»




Страна: США / Hours Capital, Palm-Star Entertainment, Safran Company, The

Жанр: триллер, драма
Год выпуска: 2013
Продолжительность: 01:37:00

Перевод: Профессиональный (многоголосый)
Cубтитры: нет
Оригинальная аудиодорожка: нет

Режиссер: Эрик Хайссерер / Eric Heisserer

В ролях: Пол Уокер, Дженезис Родригез, Нэнси Нейв, Шэйн Якобсен, Наталия Ярожик, Тиджей Хассан, Лена Кларк, Кеша Баллард, Йоханс Майлс, Джудд Лорманд...

Роли дублировали:

Описание: Новый Орлеан. Август 2005-го. Смертоносная «Катрина» сметает все на своем пути. Отец изо всех сил пытается спасти свою дочь. Он понимает, что справиться со стихией, остановить беспощадный ураган не в его силах. На спасение дочери остаются считанные часы…

Качество: HDRip / Hours.2013.1080p.BluRay.DTS.x264-PublicHD + DVD5 R5 от "Paradise"
Формат: AVI

Видео: 720x304 (2.35:1), XViD 1764 Кбит/сек / 23.976 fps / Бит/(Пиксели*Кадры) : 0.336
Аудио: Dolby Digital Audio Russian 448 kbps 5.1 / 48 kHz / 448 kbps

Общее
Полное имя : Pobejdaya.vremya.2013.D.HDRip.avi
Формат : AVI
Формат/Информация : Audio Video Interleave
Размер файла : 1,46 Гбайт
Продолжительность : 1 ч. 36 м.
Общий поток : 2157 Кбит/сек
Программа кодирования : VirtualDubMod 1.5.10.3 | http://www.virtualdub-fr.org || (build 2550/release)
Библиотека кодирования : VirtualDubMod build 2550/release

Видео
Идентификатор : 0
Формат : MPEG-4 Visual
Профиль формата : Advanced Simple@L5
Параметр BVOP формата : 2
Параметр QPel формата : Нет
Параметр GMC формата : Без точки перехода
Параметр матрицы формата : Default (MPEG)
Идентификатор кодека : XVID
Идентификатор кодека/Подсказка : XviD
Продолжительность : 1 ч. 36 м.
Битрейт : 1764 Кбит/сек
Ширина : 720 пикселей
Высота : 304 пикселя
Соотношение сторон : 2,35:1
Частота кадров : 23,976 кадра/сек
Цветовое пространство : YUV
Субдискретизация насыщенности : 4:2:0
Битовая глубина : 8 бит
Тип развёртки : Прогрессивная
Метод сжатия : С потерями
Бит/(Пиксели*Кадры) : 0.336
Размер потока : 1,20 Гбайт (82%)
Библиотека кодирования : XviD 1.2.1 (UTC 2008-12-04)

Аудио
Идентификатор : 1
Формат : AC-3
Формат/Информация : Audio Coding 3
Расширение режима : CM (complete main)
Параметр Endianness формата : Big
Идентификатор кодека : 2000
Продолжительность : 1 ч. 36 м.
Вид битрейта : Постоянный
Битрейт : 384 Кбит/сек
Каналы : 6 каналов
Расположение каналов : Front: L C R, Side: L R, LFE
Частота : 48,0 КГц
Битовая глубина : 16 бит
Метод сжатия : С потерями
Размер потока : 266 Мбайт (18%)
Выравнивание : Разделение по промежуткам
Продолжительность промежутка : 42 мс. (1,00 видеокадр)
Время предзагрузки промежутка : 500 мс.


   
Торрент: Зарегистрирован [Август 17, 2014, 2:01 pm]
Видео DVD Скачать торрент Магнет ссылка Смотреть онлайн
Скачать торрент
[ Размер 15.38 КБ / Просмотров 0 ]
Статус:
Проверен
---
.torrent скачан: 1850 раз
Приватный: Нет (DHT включён)
Размер: 1.46 ГБ (1 569 361 920)
   
Аватара пользователя
Denny
 
Раздал: 7.49 ТБ
Скачал: 807.97 ГБ
Ратио: 1007.499
Сообщения: 1934
Зарегистрирован: Ноябрь 19, 2012, 10:49 pm
Откуда: Россия

Флаг страны: Russia

  • Похожие торренты
    Ответы
    Просмотры
    Последнее сообщение

Вернуться в Видео DVD



Кто сейчас на конференции

Сейчас эту тему просматривают: нет зарегистрированных пользователей и гости: 1

Ресурс не содержит никакой другой информации, кроме описаний отдельных файлов или их групп, имеющихся у некоторых пользователей данного ресурса. Подтверждением наличия данных файлов у пользователя может иногда являться специальный набор значений, представляющих собой результаты применения односторонних хеш-функций к этим файлам или их группам. Данные наборы значений объединяются пользователями в единое целое и могут быть выложены ими вместе с описаниями имеющихся у них файлов. Администрация данного ресурса не имеет физической возможности убедиться, что описания файлов, выложенные нашими пользователями, равно как и созданные ими наборы хешей от файлов, соответствуют реальным файлам имеющимся у пользователей, а не созданы каким-либо иным способом.
cron
Яндекс.Метрика