Принц / The Prince (2014) WEB-DLRip-AVC | L1

Фильмы в формате WEBRip/Avi и т.д.
 Статистика раздачи 
Размер: 1.45 ГБ   |  Зарегистрирован: Август 24, 2014, 3:43 pm   |   .torrent скачан: 20 раз
Сидеров: 52  [ 0 байт/сек ]   Личеров: 326  [ 0 байт/сек ]  

Принц / The Prince (2014) WEB-DLRip-AVC | L1

Сообщение sergey » Август 24, 2014, 3:43 pm

Информация о фильме
Название: Принц
Оригинальное название: The Prince
Год выхода: 2014
Жанр: Боевик, Триллер
Режиссер: Брайан А. Миллер
В ролях: Джейсон Патрик, Брюс Уиллис, Джон Кьюсак, Фифти Сент, Рэйн, Джессика Лаундес, Джонатон Шек, Джина Мантенья

О фильме:
Типичный боевик, бывший головорез из Лас-Вегаса возвращается домой и обнаруживает, что его дочь похищена.



Выпущено: США / Aperture Entertainment, Emmett/Furla Films, Grindstone Entertainment Group, Oasis Films
Продолжительность: 01:30:38
Перевод: Любительский (одноголосый) [Andi], перевод М. Васильев (MixBas)

Файл
Формат: MKV
Качество: WEB-DLRip-AVC [Рип с WEB-DL 720p]
Видео: 1906 Kb/s, 1024x424
Аудио: AC3, 384 Kb/s (6 ch)
Субтитры: English

Format : Matroska
Format version : Version 4 / Version 2
File size : 1.45 GiB
Duration : 1h 30mn
Overall bit rate : 2 290 Kbps
Encoded date : UTC 2014-08-24 06:59:15
Writing application : mkvmerge v6.1.0 ('Old Devil') built on Mar 4 2013 09:10:42
Writing library : libebml v1.3.0 + libmatroska v1.4.0

Video
ID : 1
Format : AVC
Format/Info : Advanced Video Codec
Format profile : High@L4.1
Format settings, CABAC : Yes
Format settings, ReFrames : 9 frames
Codec ID : V_MPEG4/ISO/AVC
Duration : 1h 30mn
Bit rate : 1 906 Kbps
Width : 1 024 pixels
Height : 424 pixels
Display aspect ratio : 2.40:1
Frame rate : 23.976 fps
Color space : YUV
Chroma subsampling : 4:2:0
Bit depth : 8 bits
Scan type : Progressive
Bits/(Pixel*Frame) : 0.183
Stream size : 1.18 GiB (81%)
Title : Rip by 03nazar03
Writing library : x264 core 130 r2273 b3065e6
Encoding settings : cabac=1 / ref=9 / deblock=1:-3:-3 / analyse=0x3:0x133 / me=umh / subme=11 / psy=1 / psy_rd=1.00:0.20 / mixed_ref=1 / me_range=48 / chroma_me=1 / trellis=2 / 8x8dct=1 / cqm=0 / deadzone=21,11 / fast_pskip=1 / chroma_qp_offset=-3 / threads=18 / lookahead_threads=3 / sliced_threads=0 / nr=0 / decimate=1 / interlaced=0 / bluray_compat=0 / constrained_intra=0 / bframes=8 / b_pyramid=2 / b_adapt=2 / b_bias=0 / direct=3 / weightb=1 / open_gop=0 / weightp=2 / keyint=250 / keyint_min=23 / scenecut=40 / intra_refresh=0 / rc=2pass / mbtree=0 / bitrate=1906 / ratetol=1.0 / qcomp=0.60 / qpmin=0 / qpmax=69 / qpstep=4 / cplxblur=20.0 / qblur=0.5 / ip_ratio=1.40 / pb_ratio=1.30 / aq=1:1.00
Language : English
Default : Yes
Forced : No

Audio
ID : 2
Format : AC-3
Format/Info : Audio Coding 3
Mode extension : CM (complete main)
Format settings, Endianness : Big
Codec ID : A_AC3
Duration : 1h 30mn
Bit rate mode : Constant
Bit rate : 384 Kbps
Channel(s) : 6 channels
Channel positions : Front: L C R, Side: L R, LFE
Sampling rate : 48.0 KHz
Bit depth : 16 bits
Compression mode : Lossy
Stream size : 249 MiB (17%)
Language : Russian
Default : Yes
Forced : No

Text
ID : 3
Format : UTF-8
Codec ID : S_TEXT/UTF8
Codec ID/Info : UTF-8 Plain Text
Language : English
Default : No
Forced : No

Menu
00:00:00.000 : en:Chapter 1
00:03:34.000 : en:Chapter 2
00:10:00.000 : en:Chapter 3
00:20:16.000 : en:Chapter 4
00:29:34.000 : en:Chapter 5
00:42:07.000 : en:Chapter 6
00:50:16.000 : en:Chapter 7
00:58:12.000 : en:Chapter 8
01:06:04.000 : en:Chapter 9
01:15:07.000 : en:Chapter 10
01:27:07.000 : en:Chapter 11
   
Торрент: Зарегистрирован [Август 24, 2014, 3:43 pm]
Видео WEBRip Скачать торрент Магнет ссылка Смотреть онлайн
Скачать торрент
[ Размер 15.08 КБ / Просмотров 9 ]
Статус:
Проверен
---
.torrent скачан: 20 раз
Приватный: Нет (DHT включён)
Размер: 1.45 ГБ (1 556 422 218)
   
Аватара пользователя
sergey
 
Раздал: 42.54 ТБ
Скачал: 198.69 ГБ
Ратио: 265.234
Сообщения: 5337
Зарегистрирован: Август 6, 2012, 2:11 pm
Откуда: СССР

Флаг страны: СССР

  • Похожие торренты
    Ответы
    Просмотры
    Последнее сообщение

Вернуться в Видео WEBRip



Кто сейчас на конференции

Сейчас эту тему просматривают: нет зарегистрированных пользователей и гости: 1

Ресурс не содержит никакой другой информации, кроме описаний отдельных файлов или их групп, имеющихся у некоторых пользователей данного ресурса. Подтверждением наличия данных файлов у пользователя может иногда являться специальный набор значений, представляющих собой результаты применения односторонних хеш-функций к этим файлам или их группам. Данные наборы значений объединяются пользователями в единое целое и могут быть выложены ими вместе с описаниями имеющихся у них файлов. Администрация данного ресурса не имеет физической возможности убедиться, что описания файлов, выложенные нашими пользователями, равно как и созданные ими наборы хешей от файлов, соответствуют реальным файлам имеющимся у пользователей, а не созданы каким-либо иным способом.
cron
Яндекс.Метрика