Три звезды [01-30 из 30] (2014) SATRip от files-x

Отечественные и зарубежные сериалы
 Статистика раздачи 
Размер: 16.12 ГБ   |  Зарегистрирован: Август 25, 2014, 2:00 pm   |   .torrent скачан: 7 раз
Сидеров: 11  [ 0 байт/сек ]   Личеров: 13  [ 0 байт/сек ]  

Три звезды [01-30 из 30] (2014) SATRip от files-x

Сообщение sergey » Август 25, 2014, 2:00 pm

Информация о фильме
Оригинальное название: Три звезды
Год выхода: 2014
Жанр: Мелодрама
Режиссер: Мичислав Юзовский, Сергей Лесогоров
В ролях: Анна Данькова, Иван Колесников, Ярослав Леонов, Максим Туранцев, Владимир Тебенко, Павел Мисаилов, Александр Лырчиков, Всеволод Макаров, Алла Подчуфарова, Лада Чернова, Алина Стеблюк, Анна Кузина (II), Юлия Юрченко, Полина Уварова, Евгений Дакот, Анастасия Немец, Дария Тюрина, Сергей Николаев (VII), Александр Пугачёв (II), Ирина Бероева, Денис Варенов, Ника Балина, Надежда Иванко, Марина Дианова, Денис Давыдов, Евграф Прохоров, Юлия Минаковская, Елена Панджариди, Светлана Фролова (II), Игорь Верста, Алина Хруник, Артем Лысков, Артём Маркарьян, Екатерина Мадалинская, Александра Булычёва

О фильме:
Брат и сестра Белянкины с детства недолюбливали друг друга. Они росли в неполной семье, вечно и во всем соревновались и вечно были всем недовольны. Сейчас Славе 31 год, он образованный и неглупый, однако, не найдя своего места под солнцем, живет одним днём. Марина, старшая сестра, страдает комплексом «ранней звезды». В 20 лет она была ведущей на одном из первых музыкальных каналов, ее узнавала вся страна. Сейчас ей 36, на телевидении лет 15 она уже никому не нужна. Марина работает где придется, продолжая мечтать о голубом экране. Вдруг Белянкины получают известие о трагической гибели отца, который бросил их много лет назад. Так как с ним в аварии погибла и его новая жена, а завещания не было, Слава и Марина оказываются единственными наследниками и получают под своё управление небольшую гостиницу в одном из районов Москвы. Первое желание брата и сестры - продать бизнес и разделить деньги - тут же разбивается вдребезги, так как выясняется, что есть и третий наследник. У их отца остался ещё один сын от нового брака, 15-ти летний паренек по имени Макс. Мало того что Слава и Марина должны управлять гостиницей до того момента, пока Максу не исполнится 18 лет, они ещё и должны стать опекунами мальчика. И каким-то загадочным образом три звезды этой гостиницы объединяют судьбы троих членов одной, давно разрушенной семьи.

Страна: Россия, DixiMedia по заказу НТВ
Продолжительность: 30 x ~ 00:46:00
Перевод: не требуется

Файл
Кодек: XviD
Видео: 720x400 (1.80:1), 25 fps, XviD build 50 ~1500 kbps avg, 0.22 bit/pixel
Аудио: 48 kHz, AC3 Dolby Digital, 2/0 (L,R) ch, ~192.00 kbps avg
General
Complete name : Z:раздачиTri.zvezdy.2014.XviD.SATRip.RG.Russkie.serialy.&.Files-xTri.zvezdy.(01.seriya).2014.XviD.SATRip.RG.Russkie.serialy.&.Files-x.avi
Format : AVI
Format/Info : Audio Video Interleave
File size : 550 MiB
Duration : 45mn 8s
Overall bit rate : 1 705 Kbps
Writing application : VirtualDubMod 1.5.10.3 | http://www.virtualdub-fr.org || (build 2550/release)
Writing library : VirtualDubMod build 2550/release

Video
ID : 0
Format : MPEG-4 Visual
Format profile : Advanced Simple@L5
Format settings, BVOP : 1
Format settings, QPel : No
Format settings, GMC : No warppoints
Format settings, Matrix : Default (H.263)
Codec ID : XVID
Codec ID/Hint : XviD
Duration : 45mn 8s
Bit rate : 1 503 Kbps
Width : 720 pixels
Height : 400 pixels
Display aspect ratio : 16:9
Frame rate : 25.000 fps
Color space : YUV
Chroma subsampling : 4:2:0
Bit depth : 8 bits
Scan type : Progressive
Compression mode : Lossy
Bits/(Pixel*Frame) : 0.209
Stream size : 485 MiB (88%)
Writing library : XviD 1.2.1 (UTC 2008-12-04)

Audio
ID : 1
Format : AC-3
Format/Info : Audio Coding 3
Mode extension : CM (complete main)
Format settings, Endianness : Big
Codec ID : 2000
Duration : 45mn 8s
Bit rate mode : Constant
Bit rate : 192 Kbps
Channel(s) : 2 channels
Channel positions : Front: L R
Sampling rate : 48.0 KHz
Bit depth : 16 bits
Compression mode : Lossy
Stream size : 62.0 MiB (11%)
Alignment : Split accross interleaves
Interleave, duration : 40 ms (1.00 video frame)
Interleave, preload duration : 500 ms





   
Торрент: Зарегистрирован [Август 25, 2014, 2:00 pm]
Сериалы Скачать торрент Магнет ссылка Смотреть онлайн
Скачать торрент
[ Размер 44.32 КБ / Просмотров 7 ]
Статус:
Проверен
---
.torrent скачан: 7 раз
Приватный: Нет (DHT включён)
Размер: 16.12 ГБ (17 311 324 732)
   
Аватара пользователя
sergey
 
Раздал: 42.54 ТБ
Скачал: 198.69 ГБ
Ратио: 265.234
Сообщения: 5343
Зарегистрирован: Август 6, 2012, 2:11 pm
Откуда: СССР

Флаг страны: СССР

  • Похожие торренты
    Ответы
    Просмотры
    Последнее сообщение

Вернуться в Сериалы



Кто сейчас на конференции

Сейчас эту тему просматривают: нет зарегистрированных пользователей и гости: 1

Ресурс не содержит никакой другой информации, кроме описаний отдельных файлов или их групп, имеющихся у некоторых пользователей данного ресурса. Подтверждением наличия данных файлов у пользователя может иногда являться специальный набор значений, представляющих собой результаты применения односторонних хеш-функций к этим файлам или их группам. Данные наборы значений объединяются пользователями в единое целое и могут быть выложены ими вместе с описаниями имеющихся у них файлов. Администрация данного ресурса не имеет физической возможности убедиться, что описания файлов, выложенные нашими пользователями, равно как и созданные ими наборы хешей от файлов, соответствуют реальным файлам имеющимся у пользователей, а не созданы каким-либо иным способом.
cron
Яндекс.Метрика