Бермудские щупальца / Bermuda Tentacles (2014) WEB-DL 720p | P

Фильмы в формате WEBRip/Avi и т.д.
 Статистика раздачи 
Размер: 2.88 ГБ   |  Зарегистрирован: Август 28, 2014, 5:46 am   |   .torrent скачан: 41 раз
Сидеров: 100  [ 0 байт/сек ]   Личеров: 83  [ 0 байт/сек ]  

Бермудские щупальца / Bermuda Tentacles (2014) WEB-DL 720p | P

Сообщение sergey » Август 28, 2014, 5:46 am

Информация о фильме
Название: Бермудские щупальца
Оригинальное название: Bermuda Tentacles
Год выхода: 2014
Жанр: ужасы, фантастика, боевик, триллер
Режиссёр: Ник Лион
В ролях: Линда Хэмилтон, Тревор Донован, Джон Сэвэдж, Майя, Джейми Кеннеди, Джастин Куомо, Джефф Ректор, Энди Клеменс, Стефани Канту, Люк Уайт

О фильме:
После крушения самолета президента в Бермудском треугольнике, самолет ВМС США отправляется на спасательную операцию, пробуждая древнего монстра.




Страна: США
Продолжительность: 01:29:09
Озвучивание: Профессиональнoe (многоголосoe)

Файл
Формат: MKV
Качество: WEB-DL 720p
Видео: 3954 Kb/s, 1280x720
Аудио: Russian: AC3, 192 kb/s (2 ch) / English: AC3, 384 kb/s (6 ch)
Субтитры: English





Format : Matroska
Format version : Version 4 / Version 2
File size : 2.88 GiB
Duration : 1h 29mn
Overall bit rate : 4 622 Kbps
Encoded date : UTC 2014-08-27 14:00:49
Writing application : mkvmerge v6.8.0 ('Theme for Great Cities') 64bit built on Mar 2 2014 21:34:26
Writing library : libebml v1.3.0 + libmatroska v1.4.1

Video
ID : 1
Format : AVC
Format/Info : Advanced Video Codec
Format profile : High@L3.1
Format settings, CABAC : No
Format settings, ReFrames : 2 frames
Codec ID : V_MPEG4/ISO/AVC
Duration : 1h 29mn
Bit rate : 3 954 Kbps
Width : 1 280 pixels
Height : 720 pixels
Display aspect ratio : 16:9
Frame rate : 23.976 fps
Color space : YUV
Chroma subsampling : 4:2:0
Bit depth : 8 bits
Scan type : Progressive
Bits/(Pixel*Frame) : 0.179
Stream size : 2.46 GiB (86%)
Language : English
Default : Yes
Forced : No
Color primaries : BT.709-5, BT.1361, IEC 61966-2-4, SMPTE RP177
Transfer characteristics : BT.709-5, BT.1361
Matrix coefficients : BT.709-5, BT.1361, IEC 61966-2-4 709, SMPTE RP177

Audio #1
ID : 2
Format : AC-3
Format/Info : Audio Coding 3
Mode extension : CM (complete main)
Format settings, Endianness : Big
Codec ID : A_AC3
Duration : 1h 29mn
Bit rate mode : Constant
Bit rate : 192 Kbps
Channel(s) : 2 channels
Channel positions : Front: L R
Sampling rate : 48.0 KHz
Bit depth : 16 bits
Compression mode : Lossy
Stream size : 122 MiB (4%)
Language : Russian
Default : Yes
Forced : Yes

Audio #2
ID : 3
Format : AC-3
Format/Info : Audio Coding 3
Mode extension : CM (complete main)
Format settings, Endianness : Big
Codec ID : A_AC3
Duration : 1h 29mn
Bit rate mode : Constant
Bit rate : 384 Kbps
Channel(s) : 6 channels
Channel positions : Front: L C R, Side: L R, LFE
Sampling rate : 48.0 KHz
Bit depth : 16 bits
Compression mode : Lossy
Stream size : 245 MiB (8%)
Language : English
Default : No
Forced : No

Text
ID : 4
Format : UTF-8
Codec ID : S_TEXT/UTF8
Codec ID/Info : UTF-8 Plain Text
Language : English
Default : No
Forced : No

Menu
00:00:00.000 : en:Air Force One Down
00:07:10.000 : en:Hostile Waters
00:16:36.000 : en:Unauthorized Actions
00:24:23.000 : en:Power Hungry
00:31:03.000 : en:Otherworldly
00:36:44.000 : en:Heart of Darkness
00:44:34.000 : en:The Graveyard
00:52:22.000 : en:Escape Plan
00:59:22.000 : en:The Nuclear Option
01:07:33.000 : en:Into the Abyss
01:16:55.000 : en:Belly of the Beast
01:22:55.000 : en:Home Coming
01:25:23.000 : en:End Credits
   
Торрент: Зарегистрирован [Август 28, 2014, 5:46 am]
Видео WEBRip Скачать торрент Магнет ссылка Смотреть онлайн
Скачать торрент
[ Размер 14.97 КБ / Просмотров 9 ]
Статус:
Проверен
---
.torrent скачан: 41 раз
Приватный: Нет (DHT включён)
Размер: 2.88 ГБ (3 090 561 481)
   
Аватара пользователя
sergey
 
Раздал: 42.54 ТБ
Скачал: 198.69 ГБ
Ратио: 265.234
Сообщения: 5348
Зарегистрирован: Август 6, 2012, 2:11 pm
Откуда: СССР

Флаг страны: СССР

  • Похожие торренты
    Ответы
    Просмотры
    Последнее сообщение

Вернуться в Видео WEBRip



Кто сейчас на конференции

Сейчас эту тему просматривают: нет зарегистрированных пользователей и гости: 1

Ресурс не содержит никакой другой информации, кроме описаний отдельных файлов или их групп, имеющихся у некоторых пользователей данного ресурса. Подтверждением наличия данных файлов у пользователя может иногда являться специальный набор значений, представляющих собой результаты применения односторонних хеш-функций к этим файлам или их группам. Данные наборы значений объединяются пользователями в единое целое и могут быть выложены ими вместе с описаниями имеющихся у них файлов. Администрация данного ресурса не имеет физической возможности убедиться, что описания файлов, выложенные нашими пользователями, равно как и созданные ими наборы хешей от файлов, соответствуют реальным файлам имеющимся у пользователей, а не созданы каким-либо иным способом.
cron
Яндекс.Метрика