Даша-путешественница / Dora the Explorer [01-40 из ?] (2003...) DVDRip от New-Team | D | лицензия

Мультфильмы
 Статистика раздачи 
Размер: 13.42 ГБ   |  Зарегистрирован: Август 28, 2014, 8:16 pm   |   .torrent скачан: 14 раз
Сидеров: 25  [ 0 байт/сек ]   Личеров: 24  [ 0 байт/сек ]  

Даша-путешественница / Dora the Explorer [01-40 из ?] (2003...) DVDRip от New-Team | D | лицензия

Сообщение Denny » Август 28, 2014, 8:16 pm



Год выпуска: 2003...
Выпущено: Канада, США / Nickelodeon Studios
Жанр: мультфильм, приключения, семейный
Продолжительность: ~ 00:24:00 / серия

Перевод: Профессиональный (дублированный)
Оригинальная аудиодорожка: нет
Субтитры: нет

Режиссер: Генри Мэдден / Henry Madden, Гари Конрад / Gary Conrad, Кэти МакУэйн / Katie McWane...

Роли озвучивали: Марк Уэйнер, Харрисон Чад, Кэтлин Херлс, Саша Торо, Риган Мизрахи, Александрия Суарез, Эшли Флеминг, Джейк Барбеидж, Хосе Зелайа, Кэйтлин Санчез...

Роли дублировали: Ирина Гришина, Татьяна Весёлкина

Описание: Главные герои сериала — семилетняя американская девочка Даша и ее друзья. Это интерактивный мультфильм, подразумевающий активное участие маленьких зрителей в каждом приключении героев и построенный по типу обучающей компьютерной игры. В каждой серии Даша приглашает зрителей отправиться с ней в поход с конкретной целью. Подруга Даши живая Карта подсказывает маршрут путешествия и остановки в пути. На каждой остановке Даша, ее друзья и зрители сериала должны решить определенную задачу или преодолеть препятствие, чтобы достичь своей цели. В конце каждой серии Даша, ее друзья и зрители хором восклицают: «У нас получилось!» и танцуют особенный танец в честь успешного завершения путешествия. «Даша-следопыт» — это совершенно новый тип обучающего и развивающего мультфильма, прежде всего, потому что в каждой его серии присутствуют игровые и интерактивные моменты. Сериал «Даша-следопыт» учит детей английским словам и фразам, дает им возможность двигаться и помогает им приобрести навыки и уверенность в себе, необходимые для решения любых задач.



Качество: DVDRip (DVD9 R5)
Формат: AVI

Видео: 720x544 (4:3), 25.000 fps, XViD ~ 1800 kbps avg, 0.184 bit/pixel
Аудио: 48 kHz, АС3 2 ch, 192 kbps, русский


Диск 1: Познакомьтесь с Диего!
01. Познакомьтесь с Диего
02. На Южный полюс
03. Путешествие на Пурпурную планету
04. Спаси щенков

Диск 2: Стихи и загадки
01. Даша и ягненок
02. Корона принца
03. Динозаврик
04. Даша спасает игру

Диск 3: Город потерянных игрушек
01. Город потеряшек
02. Что потом случилось?
03. Спасите-помогите!
04. Плюшевый динозаврик для башмачка

Диск 4: Даша празднует Хеллоуин
01. Хеллоуин
02. Башмачок-бейсболист
03. Почини-машина
04. Лучшие друзья

Диск 5: Вечеринка глупостей
01. Вечеринка глупостей
02. Особый день башмачка
03. Застрявший грузовик
04. Большая картошка

Диск 6: Застенчивая радуга
01. Застенчивая радуга
02. Башмачок, на помощь!
03. Мы - команда!
04. Старшая сестренка Даша

Диск 7: Щенок для Даши
01. У Даши есть щенок
02. Перемешанные сезоны
03. Краб-малыш
04. Жулик-путешественник

Диск 8: Супермалыши
01. Супермалыши
02. Поймай малышей
03. Малыш Ягуар зовет на помощь
04. Первое путешествие Даши

Диск 9: Разбудим солнышко
01. Кто громче?
02. Хороший день для работы
03. Робот Роберто
04. Звездная пора

Диск 10: Пиратское приключение
01. Даша на Острове сокровищ
02. Пиратское приключение
03. Супершпионы 2: Машина жулика
04. Сокровища Бенни

Общее
Полное имя : Dasha-puteshestvennitsa.2003.D.DVDRip_[New-Team]_by_avproh1.Poznakomtes.s.Diego1.avi
Формат : AVI
Формат/Информация : Audio Video Interleave
Размер файла : 343 Мбайт
Продолжительность : 24 м.
Общий поток : 1999 Кбит/сек
Программа кодирования : VirtualDubMod 1.5.10.3 | http://www.virtualdub-fr.org || (build 2550/release)
Библиотека кодирования : VirtualDubMod build 2550/release

Видео
Идентификатор : 0
Формат : MPEG-4 Visual
Профиль формата : Advanced Simple@L5
Параметр BVOP формата : 1
Параметр QPel формата : Нет
Параметр GMC формата : Без точки перехода
Параметр матрицы формата : Выборочная
Идентификатор кодека : XVID
Идентификатор кодека/Подсказка : XviD
Продолжительность : 24 м.
Битрейт : 1797 Кбит/сек
Ширина : 720 пикселей
Высота : 544 пикселя
Соотношение сторон : 4:3
Частота кадров : 25,000 кадров/сек
Цветовое пространство : YUV
Субдискретизация насыщенности : 4:2:0
Битовая глубина : 8 бит
Тип развёртки : Прогрессивная
Метод сжатия : С потерями
Бит/(Пиксели*Кадры) : 0.184
Размер потока : 309 Мбайт (90%)
Библиотека кодирования : XviD 73

Аудио
Идентификатор : 1
Формат : AC-3
Формат/Информация : Audio Coding 3
Расширение режима : CM (complete main)
Параметр Endianness формата : Big
Идентификатор кодека : 2000
Продолжительность : 24 м.
Вид битрейта : Постоянный
Битрейт : 192 Кбит/сек
Каналы : 2 канала
Расположение каналов : Front: L R
Частота : 48,0 КГц
Битовая глубина : 16 бит
Метод сжатия : С потерями
Размер потока : 33,0 Мбайт (10%)
Выравнивание : Разделение по промежуткам
Продолжительность промежутка : 40 мс. (1,00 видеокадр)
Время предзагрузки промежутка : 500 мс.


   
Торрент: Зарегистрирован [Август 28, 2014, 8:16 pm]
Мультфильмы Скачать торрент Магнет ссылка Смотреть онлайн
Скачать торрент
[ Размер 37.34 КБ / Просмотров 10 ]
Статус:
Проверен
---
.torrent скачан: 14 раз
Приватный: Нет (DHT включён)
Размер: 13.42 ГБ (14 412 736 512)
   
Аватара пользователя
Denny
 
Раздал: 7.49 ТБ
Скачал: 807.97 ГБ
Ратио: 1007.499
Сообщения: 1934
Зарегистрирован: Ноябрь 19, 2012, 10:49 pm
Откуда: Россия

Флаг страны: Russia

Вернуться в Мультфильмы



Кто сейчас на конференции

Сейчас эту тему просматривают: нет зарегистрированных пользователей и гости: 1

cron
Ресурс не содержит никакой другой информации, кроме описаний отдельных файлов или их групп, имеющихся у некоторых пользователей данного ресурса. Подтверждением наличия данных файлов у пользователя может иногда являться специальный набор значений, представляющих собой результаты применения односторонних хеш-функций к этим файлам или их группам. Данные наборы значений объединяются пользователями в единое целое и могут быть выложены ими вместе с описаниями имеющихся у них файлов. Администрация данного ресурса не имеет физической возможности убедиться, что описания файлов, выложенные нашими пользователями, равно как и созданные ими наборы хешей от файлов, соответствуют реальным файлам имеющимся у пользователей, а не созданы каким-либо иным способом.
cron
Яндекс.Метрика