Машина / The Machine (2013) BDRip от New-Team | P | лицензия

Фильмы в формате DVD
 Статистика раздачи 
Размер: 1.49 ГБ   |  Зарегистрирован: Сентябрь 4, 2014, 6:34 pm   |   .torrent скачан: 2852 раз
Сидеров: 671  [ 0 байт/сек ]   Личеров: 274  [ 0 байт/сек ]  

Машина / The Machine (2013) BDRip от New-Team | P | лицензия

Сообщение Denny » Сентябрь 4, 2014, 6:34 pm



«They rise. We fall»



Страна: Великобритания / Red & Black Films

Жанр: фантастика, триллер
Год выпуска: 2013
Продолжительность: 01:30:28

Перевод: Профессиональный (многоголосый)
Cубтитры: нет
Оригинальная аудиодорожка: нет

Режиссер: Карадог В. Джеймс / Caradog W. James

В ролях: Кейти Лотц, Тоби Стивенс, Сэм Хэзелдайн, Дэнис Лосон, Pooneh Hajimohammadi, Сиван Моррис, Ли Николас Харрис, Суле Рими, Бен МакГрегор, Хелен Гриффин...

Описание: Из-за нестабильной обстановки в мире британское министерство обороны нуждается в получении нового оружия. Ведущий ученый Винсент МакКарти предоставляет свое решение этого вопроса, «Машина» — андроид с непревзойденными физическими способностями. Когда программная ошибка заставляет опытный образец разрушать его лабораторию, МакКарти вербует эксперта по искусственному интеллекту Ава, чтобы помочь ему использовать полный потенциал машины-убийцы.

Качество: BDRip / DVD9 R5 от Lizard + The.Machine.2013.1080p.BluRay.AVC.DTS-H ... @JoyHD.mkv
Формат: AVI

Видео: 720x400 (16:9), XviD 1899 Кбит/с / 23,976 fps / 0.275 bit/pix
Аудио: Dolby Digital Audio Russian 448 kbps 5.1 / 48 kHz / 448 kbps / DN -4dB

Общее
Полное имя : Mashyna.2013.P.BDRip_[New-Team]_by_avproh.avi
Формат : AVI
Формат/Информация : Audio Video Interleave
Размер файла : 1,49 Гбайт
Продолжительность : 1 ч. 30 м.
Общий поток : 2357 Кбит/сек
Программа кодирования : VirtualDubModRus 1.5.10.2 (build 2542/release)
Библиотека кодирования : VirtualDubMod build 2542/release

Видео
Идентификатор : 0
Формат : MPEG-4 Visual
Профиль формата : Advanced Simple@L5
Параметр BVOP формата : 1
Параметр QPel формата : Нет
Параметр GMC формата : Без точки перехода
Параметр матрицы формата : Выборочная
Идентификатор кодека : XVID
Идентификатор кодека/Подсказка : XviD
Продолжительность : 1 ч. 30 м.
Битрейт : 1899 Кбит/сек
Ширина : 720 пикселей
Высота : 400 пикселей
Соотношение сторон : 16:9
Частота кадров : 23,976 кадра/сек
Цветовое пространство : YUV
Субдискретизация насыщенности : 4:2:0
Битовая глубина : 8 бит
Тип развёртки : Прогрессивная
Метод сжатия : С потерями
Бит/(Пиксели*Кадры) : 0.275
Размер потока : 1,20 Гбайт (81%)
Библиотека кодирования : XviD 73

Аудио
Идентификатор : 1
Формат : AC-3
Формат/Информация : Audio Coding 3
Расширение режима : CM (complete main)
Параметр Endianness формата : Big
Идентификатор кодека : 2000
Продолжительность : 1 ч. 30 м.
Вид битрейта : Постоянный
Битрейт : 448 Кбит/сек
Каналы : 6 каналов
Расположение каналов : Front: L C R, Side: L R, LFE
Частота : 48,0 КГц
Битовая глубина : 16 бит
Метод сжатия : С потерями
Размер потока : 290 Мбайт (19%)
Выравнивание : Разделение по промежуткам
Продолжительность промежутка : 42 мс. (1,00 видеокадр)
Время предзагрузки промежутка : 500 мс.


   
Торрент: Зарегистрирован [Сентябрь 4, 2014, 6:34 pm]
Видео DVD Скачать торрент Магнет ссылка Смотреть онлайн
Скачать торрент
[ Размер 15.66 КБ / Просмотров 0 ]
Статус:
Проверен
---
.torrent скачан: 2852 раз
Приватный: Нет (DHT включён)
Размер: 1.49 ГБ (1 598 920 704)
   
Аватара пользователя
Denny
 
Раздал: 7.49 ТБ
Скачал: 807.97 ГБ
Ратио: 1007.499
Сообщения: 1934
Зарегистрирован: Ноябрь 19, 2012, 10:49 pm
Откуда: Россия

Флаг страны: Russia

Вернуться в Видео DVD



Кто сейчас на конференции

Сейчас эту тему просматривают: нет зарегистрированных пользователей и гости: 1

cron
Ресурс не содержит никакой другой информации, кроме описаний отдельных файлов или их групп, имеющихся у некоторых пользователей данного ресурса. Подтверждением наличия данных файлов у пользователя может иногда являться специальный набор значений, представляющих собой результаты применения односторонних хеш-функций к этим файлам или их группам. Данные наборы значений объединяются пользователями в единое целое и могут быть выложены ими вместе с описаниями имеющихся у них файлов. Администрация данного ресурса не имеет физической возможности убедиться, что описания файлов, выложенные нашими пользователями, равно как и созданные ими наборы хешей от файлов, соответствуют реальным файлам имеющимся у пользователей, а не созданы каким-либо иным способом.
cron
Яндекс.Метрика