Сигнал / The Signal (2014) WebRip

Фильмы в формате WEBRip/Avi и т.д.
 Статистика раздачи 
Размер: 1.36 ГБ   |  Зарегистрирован: Сентябрь 6, 2014, 9:28 am   |   .torrent скачан: 13 раз
Сидеров: 83  [ 0 байт/сек ]   Личеров: 24  [ 0 байт/сек ]  

Сигнал / The Signal (2014) WebRip

Сообщение sergey » Сентябрь 6, 2014, 9:28 am

Информация о фильме
Название: Сигнал
Оригинальное название: The Signal
Год выхода: 2014
Жанр: Фантастика,Триллер
Режиссер: Уильям Юбэнк
В ролях: Лоренс Фишбёрн, Патрик Дэвидсон, Брентон Туэйтс, Оливия Кук, Бо Напп, Джеффри Гроувер, Рой Кенни, Тимоти Холмс, Рикардо Кампос, Дрю Сайкес

О фильме:
Трое студентов-хакеров неожиданно начинают получать таинственные сообщения от незнакомца под ником NOMAD (Кочевник). Но они даже не подозревают, что имеют дело не с человеком, а с внеземным разумом. После серии необъяснимых происшествий друзья бегут из опасной ловушки, но тут же становятся объектами охоты «людей в чёрном», которые считают, что после контакта хакеры могут представлять угрозу для всего человечества.

Сэмпл

Файл
Качество: WebRip
Видео: XviD, 1869 kb/s, 720х304, 24.000 fps
Аудио: AC3, 192 Кбит/с, 2 ch, 48.0 КГц
Продолжительность: 01:34:12
Перевод: Дублированный [звук с TS]
Примечание: Присутствуют вшитые корейские субтитры

General
Complete name                            : S1gHal.2014.D.WEBRip.1400MB.avi
Format                                   : AVI
Format/Info                              : Audio Video Interleave
File size                                : 1.36 GiB
Duration                                 : 1h 34mn
Overall bit rate                         : 2 071 Kbps
Writing application                      : VirtualDubMod 1.5.10.2 (build 2540/release)
Writing library                          : VirtualDubMod build 2540/release

Video
ID                                       : 0
Format                                   : MPEG-4 Visual
Format profile                           : Advanced Simple@L5
Format settings, BVOP                    : 2
Format settings, QPel                    : No
Format settings, GMC                     : No warppoints
Format settings, Matrix                  : Default (MPEG)
Codec ID                                 : XVID
Codec ID/Hint                            : XviD
Duration                                 : 1h 34mn
Bit rate                                 : 1 870 Kbps
Width                                    : 720 pixels
Height                                   : 304 pixels
Display aspect ratio                     : 2.35:1
Frame rate                               : 24.000 fps
Color space                              : YUV
Chroma subsampling                       : 4:2:0
Bit depth                                : 8 bits
Scan type                                : Progressive
Compression mode                         : Lossy
Bits/(Pixel*Frame)                       : 0.356
Stream size                              : 1.23 GiB (90%)
Writing library                          : XviD 1.2.1 (UTC 2008-12-04)

Audio
ID                                       : 1
Format                                   : AC-3
Format/Info                              : Audio Coding 3
Mode extension                           : CM (complete main)
Format settings, Endianness              : Big
Codec ID                                 : 2000
Duration                                 : 1h 34mn
Bit rate mode                            : Constant
Bit rate                                 : 192 Kbps
Channel(s)                               : 2 channels
Channel positions                        : Front: L R
Sampling rate                            : 48.0 KHz
Bit depth                                : 16 bits
Compression mode                         : Lossy
Stream size                              : 129 MiB (9%)
Alignment                                : Split accross interleaves
Interleave, duration                     : 42 ms (1.00 video frame)
Interleave, preload duration             : 500 ms















   
Торрент: Зарегистрирован [Сентябрь 6, 2014, 9:28 am]
Видео WEBRip Скачать торрент Магнет ссылка Смотреть онлайн
Скачать торрент
[ Размер 14.19 КБ / Просмотров 13 ]
Статус:
Проверен
---
.torrent скачан: 13 раз
Приватный: Нет (DHT включён)
Размер: 1.36 ГБ (1 463 386 112)
   
Аватара пользователя
sergey
 
Раздал: 42.54 ТБ
Скачал: 198.69 ГБ
Ратио: 265.234
Сообщения: 5350
Зарегистрирован: Август 6, 2012, 2:11 pm
Откуда: СССР

Флаг страны: СССР

  • Похожие торренты
    Ответы
    Просмотры
    Последнее сообщение

Вернуться в Видео WEBRip



Кто сейчас на конференции

Сейчас эту тему просматривают: нет зарегистрированных пользователей и гости: 1

Ресурс не содержит никакой другой информации, кроме описаний отдельных файлов или их групп, имеющихся у некоторых пользователей данного ресурса. Подтверждением наличия данных файлов у пользователя может иногда являться специальный набор значений, представляющих собой результаты применения односторонних хеш-функций к этим файлам или их группам. Данные наборы значений объединяются пользователями в единое целое и могут быть выложены ими вместе с описаниями имеющихся у них файлов. Администрация данного ресурса не имеет физической возможности убедиться, что описания файлов, выложенные нашими пользователями, равно как и созданные ими наборы хешей от файлов, соответствуют реальным файлам имеющимся у пользователей, а не созданы каким-либо иным способом.
cron
Яндекс.Метрика