Приключения Чака и его друзей / The Adventures of Chuck & Friends [S01x01-52 из 52] (2010-2011) DVDRip от New-Team | лицензия

Мультфильмы
 Статистика раздачи 
Размер: 7.67 ГБ   |  Зарегистрирован: Сентябрь 6, 2014, 7:00 pm   |   .torrent скачан: 10 раз
Сидеров: 24  [ 0 байт/сек ]   Личеров: 0  [ 0 байт/сек ]  

Приключения Чака и его друзей / The Adventures of Chuck & Friends [S01x01-52 из 52] (2010-2011) DVDRip от New-Team | лицензия

Сообщение Denny » Сентябрь 6, 2014, 7:00 pm




Страна: США, Канада / Hasbro Studios, Nelvana Limited

Жанр: мультфильм
Год выпуска: 2010 - 2011
Продолжительность: ~00:10:00 / серия

Перевод: Профессиональный (дублированный)
Cубтитры: нет
Оригинальная аудиодорожка: нет

Режиссер: Брайан Харрис / Brian Harris, Адриан Тэтчер / Adrian Thatcher, Дональд Ким / Donald Kim

В главных ролях: Стэйси ДеПасс, Фэб Филиппо, Даррен Фрост, Лорен Холли, Джоэнн Ванникола, Дэйл Йим, Лион Смит, Гэбриел Джиаммария, Gabriel Giuliani,
Блэр Уильямс...

Роли дублировали: Елена Шульман, Антон Савенков, Татьяна Весёлкина, Диомид Виноградов, Станислав Стрелков

Описание: Грузовичок Чак и его товарищи одинаково любят работать и веселиться. Они с лёгкостью решают любые проблемы, потому что всегда помогают друг другу. Кроме того, Чак обожает фантазировать, поэтому друзьям никогда не приходится скучать.

Качество: DVDRip / DVD9 R5 и DVD5 R5 от компании "Новый диск"
Формат: AVI

Видео: 720x400 (16:9), 25.000 fps, XviD ~ 1800 kbps avg, 0.250 bit/pixel
Аудио: 48 kHz, Dolby AC3, 2 ch, 192 kbps, русский


Выпуск 1 (2010)
01. Тяжелая ноша / Special Delivery
02. Тренировка / Buffing Up
03. Тайное становится явным / Tough Break
04. Маленький большой Чак / Little Big Chuck
05. Гонка мечты / Race to the Race
06. Летающие грузовички / When Trucks Fly
07. Крепость на день / Fort Chuck
08. Впервые на арене / A Hop, Slip and a Jump
09. Врач для грузовика / The Checkup

Выпуск 2 (2010)
01. Тише едешь — дальше будешь / The Shortcut
02. Подземные тайны / Digging Deep
03. Свет, камера, грузовики / Lights, Camera, Trucks!
04. Рок-Грузовики / Truck and Roll
05. Юные детективы / Mystery, He Rode
06. Трудный выбор / Choosy Chuck
07. Самый лучший грузовик / The Best
08. Самостоятельный ремонт / The Pothole

Выпуск 3 (2011)
01. Праздник по расписанию / Chuck's Perfect Plans
02. Чак за главного / Chuck in Charge
03. Грузовики на природе / Trucks vs. Wild
04. Инопланетное вторжение / Unidentified Rolling Object
05. Гениальный актёр / On a Role
06. Новое призвание Бумера / Up All Night
07. Новогодняя ночь / Boomer the Snowplow
08. Сны наяву / Sleep-Driving Chuck
09. Сорвиголова / Daredevil Chuck

Выпуск 4 (2011)
01. В поисках сокровищ / Chuck and the Lost Hubcap of Gold
02. Новая игрушка / Shine On
03. Маленький хвастунишка / Where There's a Wheel
04. Сила цветов / Flower Power
05. Атомный Чак / Chuck Atomic
06. Воля к победе / Chuck's Big Break
07. Скучный день / Game On
08. Детске забавы / Kid Stuff

Выпуск 5 (2011)
01. Обратный отсчет / Contest Countdown
02. Неудержимый Ралли / Revving Up Rally
03. Перемена мест / Being Biggs
04. Тяжелая болезнь / As the Engine Coughs
05. Поднять якоря / Anchors A-Wheel
06. Каждому своё / Mind Your Own Business
07. Брат на прокат / Brother Borrowing
08. Когда Холи встретила Портера / When Haulie Met Porter
09. Искусство быть Чаком / The Art of Being Chuck

Выпуск 6 (2011)
01. Пять чувств / Senses of Direction
02. Праздник на пляже / Beach Blanket Uh-Oh
03. Прятки с репортером /Hide and Seek
04. Нападение гигантского робота / Attack of the 50-Foot Chuck
05. Сложность перевода / Soku-Kun
06. Клуб астрономов / Join the Club
07. Авария / Fender Bender
08. Испорченный телефон / Did You Hear?
09. Научный проект / Bridging the Gap

Внимание! Раздача ведётся путём добавления новых серий; при каждом добавлении создаётся новый торрент-файл. Чтобы начать докачку новой серии, пользователям необходимо сделать следующее:
(1) остановить скачивание;
(2) удалить старый торрент-файл у себя из клиента (старые серии удалять не надо);
(3) скачать новый торрент-файл и запустить его у себя в клиенте вместо старого, при этом указать клиенту путь в старую папку куда и должно происходить скачивание новых серий.
Ваш клиент при этом должен произвести хеширование (проверку) старой папки (если он не производит проверку сам – помогите ему сделать это), и будет докачивать только те серии которых у вас ещё нет. Старые серии при этом не удаляются, а продолжают раздаваться!
Если вы уже удалили старые серии, то предотвратить повторную закачку старых серий можно, отжав галочку в соответствующих местах при запуске нового торрент-файла. Желательно старые серии не удалять как можно дольше, чтобы релизёр не столько продолжал раздавать старые серии, а смог сконцентрироваться на новых.

Общее
Полное имя : Priklyucheniya.Chaka.i.ego.druzey.2012.D.DVDRip_[New-Team]_by_avprohVypusk11.avi
Формат : AVI
Формат/Информация : Audio Video Interleave
Размер файла : 148 Мбайт
Продолжительность : 10 м.
Общий поток : 2001 Кбит/сек
Программа кодирования : VirtualDubModRus 1.5.10.2 (build 2542/release)
Библиотека кодирования : VirtualDubMod build 2542/release

Видео
Идентификатор : 0
Формат : MPEG-4 Visual
Профиль формата : Advanced Simple@L5
Параметр BVOP формата : 1
Параметр QPel формата : Нет
Параметр GMC формата : Без точки перехода
Параметр матрицы формата : Выборочная
Идентификатор кодека : XVID
Идентификатор кодека/Подсказка : XviD
Продолжительность : 10 м.
Битрейт : 1799 Кбит/сек
Ширина : 720 пикселей
Высота : 400 пикселей
Соотношение сторон : 16:9
Частота кадров : 25,000 кадров/сек
Цветовое пространство : YUV
Субдискретизация насыщенности : 4:2:0
Битовая глубина : 8 бит
Тип развёртки : Прогрессивная
Метод сжатия : С потерями
Бит/(Пиксели*Кадры) : 0.250
Размер потока : 133 Мбайт (90%)
Библиотека кодирования : XviD 73

Аудио
Идентификатор : 1
Формат : AC-3
Формат/Информация : Audio Coding 3
Расширение режима : CM (complete main)
Параметр Endianness формата : Big
Идентификатор кодека : 2000
Продолжительность : 10 м.
Вид битрейта : Постоянный
Битрейт : 192 Кбит/сек
Каналы : 2 канала
Расположение каналов : Front: L R
Частота : 48,0 КГц
Битовая глубина : 16 бит
Метод сжатия : С потерями
Размер потока : 14,2 Мбайт (10%)
Выравнивание : Разделение по промежуткам
Продолжительность промежутка : 40 мс. (1,00 видеокадр)
Время предзагрузки промежутка : 500 мс.


   
Торрент: Зарегистрирован [Сентябрь 6, 2014, 7:00 pm]
Мультфильмы Скачать торрент Магнет ссылка Смотреть онлайн
Скачать торрент
[ Размер 23.77 КБ / Просмотров 9 ]
Статус:
Проверен
---
.torrent скачан: 10 раз
Приватный: Нет (DHT включён)
Размер: 7.67 ГБ (8 237 985 792)
   
Аватара пользователя
Denny
 
Раздал: 7.49 ТБ
Скачал: 807.97 ГБ
Ратио: 1007.499
Сообщения: 1934
Зарегистрирован: Ноябрь 19, 2012, 10:49 pm
Откуда: Россия

Флаг страны: Russia

Вернуться в Мультфильмы



Кто сейчас на конференции

Сейчас эту тему просматривают: нет зарегистрированных пользователей и гости: 1

Ресурс не содержит никакой другой информации, кроме описаний отдельных файлов или их групп, имеющихся у некоторых пользователей данного ресурса. Подтверждением наличия данных файлов у пользователя может иногда являться специальный набор значений, представляющих собой результаты применения односторонних хеш-функций к этим файлам или их группам. Данные наборы значений объединяются пользователями в единое целое и могут быть выложены ими вместе с описаниями имеющихся у них файлов. Администрация данного ресурса не имеет физической возможности убедиться, что описания файлов, выложенные нашими пользователями, равно как и созданные ими наборы хешей от файлов, соответствуют реальным файлам имеющимся у пользователей, а не созданы каким-либо иным способом.
cron
Яндекс.Метрика