Живой щит / Защитник / The Human Shield (1991) DVD-5 | Лицензия

Фильмы в формате DVD
 Статистика раздачи 
Размер: 4.09 ГБ   |  Зарегистрирован: Сентябрь 9, 2014, 6:15 pm   |   .torrent скачан: 0 раз
Сидеров: 1  [ 0 байт/сек ]   Личеров: 3  [ 0 байт/сек ]  

Живой щит / Защитник / The Human Shield (1991) DVD-5 | Лицензия

Сообщение sergey » Сентябрь 9, 2014, 6:15 pm

Информация о фильме
Название: Живой щит / Защитник
Оригинальное название: The Human Shield
Год выхода: 1991
Жанр: Боевик, драма, приключения
Режиссёр: Тед Пост
В ролях: Майкл Дудикофф, Томми Хинкли, Хана Азулай-Хасафри, Стив Инвуд, Ури Гавриел, Майкл Шилло, Роберто Поллак

О фильме:
Северный Ирак, 1985 год. Военный специалист Даглас Мэттьюс становится свидетелем жестокой бойни, которую иракский полковник Али Даллал учинил в маленькой курдской деревушке. В память об этом дне у Али остался глубокий шрам на щеке, поскольку полковник, к собственному несчастью, подрался с Дагласом. Затем действие фильма переносится в август 1990 года, когда затаенная злоба на Мэттьюса, которую Али холил и лелеял в душе своей, переросла все мыслимые пределы, и полковник, ставший к этому времени главным контрразведчиком Ирака, нарушая международные договоренности, прямо в Багдадском аэропорту арестовал Бена Мэттьюса, родного брата своего заклятого врага.



Страна: США
Студия: Cannon Pictures
Продолжительность: 01:27:24
Перевод: Профессиональный двухголосый

Файл
Кодек: MPEG2
Качество: DVD-5
Видео: MPEG2, PAL, 720x576 (4:3), 6184 Кбит/с, VBR, 25 кадр/с
Звук: Русский, Dolby AC3, 48000 Гц, 2 канала (Стерео)
Субтитры: Нет


Title: Живой Щит
Size: 4.09 Gb ( 4 292 674,00 KBytes ) - DVD-5
Enabled regions: 1, 2, 3, 4, 5, 6, 7, 8

VTS_01 :
 Play Length: 01:27:24
 Video: PAL 4:3 (720x576) VBR, Letterboxed
 Audio:
     English (Dolby AC3, 2 ch)

VTS_02 :
 Play Length: 00:00:15+00:00:10
 Video: PAL 4:3 (720x576) VBR, Letterboxed
 Audio:
     English (Dolby AC3, 6 ch)

* Menus Information *

VIDEO_TS Menu
Video:
     PAL 4:3 (720x576) VBR
     Letterboxed
Audio:
     Not specified (Dolby AC3, 2 ch)
English Language Unit :
     Title Menu

VTS_01 Menu
Video:
     PAL 4:3 (720x576) VBR
Audio:
     Not specified (Dolby AC3, 2 ch)
English Language Unit :
     Root Menu
     Chapter (PTT) Menu

VTS_02 Menu
Video:
     NTSC 4:3 (720x480) VBR
     Auto Pan&Scan, Auto Letterboxed
English Language Unit :
     Root Menu

General
Complete name                            : VTS_01_1.VOB
Format                                   : MPEG-PS
File size                                : 1 000 MiB
Duration                                 : 21mn 23s
Overall bit rate mode                    : Variable
Overall bit rate                         : 6 538 Kbps

Video
ID                                       : 224 (0xE0)
Format                                   : MPEG Video
Format version                           : Version 2
Format profile                           : Main@Main
Format settings, BVOP                    : Yes
Format settings, Matrix                  : Default
Format settings, GOP                     : M=3, N=12
Duration                                 : 21mn 23s
Bit rate mode                            : Variable
Bit rate                                 : 6 184 Kbps
Maximum bit rate                         : 9 800 Kbps
Width                                    : 720 pixels
Height                                   : 576 pixels
Display aspect ratio                     : 4:3
Frame rate                               : 25.000 fps
Standard                                 : PAL
Color space                              : YUV
Chroma subsampling                       : 4:2:0
Bit depth                                : 8 bits
Scan type                                : Interlaced
Scan order                               : Top Field First
Compression mode                         : Lossy
Bits/(Pixel*Frame)                       : 0.596
Stream size                              : 946 MiB (95%)
Color primaries                          : BT.470-2 System B, BT.470-2 System G
Transfer characteristics                 : BT.470-2 System B, BT.470-2 System G
Matrix coefficients                      : BT.470-2 System B, BT.470-2 System G

Audio
ID                                       : 189 (0xBD)-128 (0x80)
Format                                   : AC-3
Format/Info                              : Audio Coding 3
Mode extension                           : CM (complete main)
Format settings, Endianness              : Big
Muxing mode                              : DVD-Video
Duration                                 : 21mn 23s
Bit rate mode                            : Constant
Bit rate                                 : 224 Kbps
Channel(s)                               : 2 channels
Channel positions                        : Front: L R
Sampling rate                            : 48.0 KHz
Bit depth                                : 16 bits
Compression mode                         : Lossy
Delay relative to video                  : -80ms
Stream size                              : 34.3 MiB (3%)

Menu


   
Торрент: Зарегистрирован [Сентябрь 9, 2014, 6:15 pm]
Видео DVD Скачать торрент Магнет ссылка Смотреть онлайн
Скачать торрент
[ Размер 21.53 КБ / Просмотров 0 ]
Статус:
Проверен
---
.torrent скачан: 0 раз
Приватный: Нет (DHT включён)
Размер: 4.09 ГБ (4 395 698 176)
   
Аватара пользователя
sergey
 
Раздал: 42.54 ТБ
Скачал: 198.69 ГБ
Ратио: 265.234
Сообщения: 5349
Зарегистрирован: Август 6, 2012, 2:11 pm
Откуда: СССР

Флаг страны: СССР

Вернуться в Видео DVD



Кто сейчас на конференции

Сейчас эту тему просматривают: нет зарегистрированных пользователей и гости: 1

Ресурс не содержит никакой другой информации, кроме описаний отдельных файлов или их групп, имеющихся у некоторых пользователей данного ресурса. Подтверждением наличия данных файлов у пользователя может иногда являться специальный набор значений, представляющих собой результаты применения односторонних хеш-функций к этим файлам или их группам. Данные наборы значений объединяются пользователями в единое целое и могут быть выложены ими вместе с описаниями имеющихся у них файлов. Администрация данного ресурса не имеет физической возможности убедиться, что описания файлов, выложенные нашими пользователями, равно как и созданные ими наборы хешей от файлов, соответствуют реальным файлам имеющимся у пользователей, а не созданы каким-либо иным способом.
cron
Яндекс.Метрика