Жесть (2006) DVDRip-AVC

Фильмы в формате DVD
 Статистика раздачи 
Размер: 2.06 ГБ   |  Зарегистрирован: Сентябрь 9, 2014, 6:30 pm   |   .torrent скачан: 605 раз
Сидеров: 75  [ 0 байт/сек ]   Личеров: 41  [ 0 байт/сек ]  

Жесть (2006) DVDRip-AVC

Сообщение Denny » Сентябрь 9, 2014, 6:30 pm



Оригинальное название: Жесть
Год выхода: 2006
Жанр: Криминал, триллер
Режиссер: Денис Нейманд
В ролях: Алёна Бабенко, Михаил Ефремов, Игорь Лифанов, Анатолий Белый, Гоша Куценко, Игорь Черневич, Рената Литвинова, Вячеслав Разбегаев, Алексей Серебряков, Сергей Шакуров

О фильме: Марина, известная журналистка, специализирующаяся на сенсационных материалах, впадает в депрессию и подумывает о смене профессии после того, как один из героев ее материала был застрелен милицейским снайпером прямо у нее на глазах. Но ее упрашивают сделать один последний материал: съездить в спецлечебницу и поговорить с человеком, которого обвиняют в жестоких серийных убийствах подростков. Она решила, что это ее последний журналистский материал, последний долг перед скандальной газетой, в которой она проработала несколько лет. Однако когда убийца сбегает и теряется внутри бескрайнего дачного поселка, а Марина отправляется на его поиски, она понимает, что ее последний материал может оказаться вообще последним ее делом. А кровавый убийца далеко не самый страшный из населяющих дачи созданий и начинается настоящий кошмар…

Страна: Россия
Студия: MB Productions
Продолжительность: 01:45:37
Язык: Русский

Кодек: MPEG-4 AVC
Качество: DVDRip-AVC
Видео: 1024x436, 2345 Кбит/с, 25,000 fps
Звук: AC3, 6 ch, 448 Кбит/с
Субтитры: Русские, английские

- Сценарий Константина Мурзенко сначала назывался «Шесть соток», потом обрел каламбурное название «Жесть соток», от которого и произошло название картины.
- В начальных титрах, стилизованных под газетные полосы, допущена ошибка: в углу стоит дата «среда, 23 марта 2006». Это дата премьеры фильма, но 23 марта — это четверг.
- Рекламная служба московского метрополитена отказалась использовать в метрорекламе слоган фильма «Ада нет, кроме того, что рядом».
- К премьере фильма был приурочен выход одноименной компьютерной игры.
- Одного из больных, которого санитары вывозят из палаты для буйных, сыграл кинокритик «Афиши» Станислав Зельвенский.
- Родители Дениса Нейманда по профессии психиатры.
- Слоган фильма — «Ада нет, кроме того, что рядом» — является строчкой из песни «Разговоры о напасах» группы «Кровосток». Московский метрополитен не дал согласия на размещение этого слогана на рекламных постерах фильма в вагонах метропоездов.
- Музыканты «Кровостока» сыграли бандитов из дачного посёлка.
Общее
Уникальный идентификатор : 217447203839880764456745839383394689424 (0xA396CEE0F147A46D9726F7BACA5CA190)
Полное имя : Жесть.2006.x264.DVDRip.(AVC).mkv
Формат : Matroska
Версия формата : Version 4 / Version 2
Размер файла : 2,06 Гбайт
Продолжительность : 1 ч. 45 м.
Общий поток : 2796 Кбит/сек
Название фильма : Жесть / 2006 / Rip by PowerRock
Дата кодирования : UTC 2014-02-27 15:03:48
Программа кодирования : mkvmerge v6.7.0 ('Back to the Ground') 32bit built on Jan 8 2014 15:03:17
Библиотека кодирования : libebml v1.3.0 + libmatroska v1.4.1

Видео
Идентификатор : 1
Формат : AVC
Формат/Информация : Advanced Video Codec
Профиль формата : High@L4.1
Параметр CABAC формата : Да
Параметр ReFrames формата : 7 кадров
Идентификатор кодека : V_MPEG4/ISO/AVC
Продолжительность : 1 ч. 45 м.
Битрейт : 2345 Кбит/сек
Ширина : 1024 пикселя
Высота : 436 пикселей
Соотношение сторон : 2,35:1
Режим частоты кадров : Постоянный
Частота кадров : 25,000 кадров/сек
Цветовое пространство : YUV
Субдискретизация насыщенности : 4:2:0
Битовая глубина : 8 бит
Тип развёртки : Прогрессивная
Бит/(Пиксели*Кадры) : 0.210
Размер потока : 1,69 Гбайт (82%)
Заголовок : Жесть / 2006
Библиотека кодирования : x264 core 125 r2200 999b753
Настройки программы : cabac=1 / ref=7 / deblock=1:-2:-1 / analyse=0x3:0x133 / me=umh / subme=10 / psy=1 / psy_rd=1.00:0.10 / mixed_ref=1 / me_range=24 / chroma_me=1 / trellis=2 / 8x8dct=1 / cqm=0 / deadzone=21,11 / fast_pskip=0 / chroma_qp_offset=-3 / threads=6 / lookahead_threads=1 / sliced_threads=0 / nr=0 / decimate=1 / interlaced=0 / bluray_compat=0 / constrained_intra=0 / bframes=5 / b_pyramid=2 / b_adapt=2 / b_bias=0 / direct=3 / weightb=1 / open_gop=0 / weightp=2 / keyint=250 / keyint_min=23 / scenecut=40 / intra_refresh=0 / rc_lookahead=50 / rc=2pass / mbtree=1 / bitrate=2345 / ratetol=1.0 / qcomp=0.60 / qpmin=10 / qpmax=51 / qpstep=4 / cplxblur=20.0 / qblur=0.5 / ip_ratio=1.40 / aq=1:1.00
Default : Да
Forced : Нет

Аудио
Идентификатор : 2
Формат : AC-3
Формат/Информация : Audio Coding 3
Расширение режима : CM (complete main)
Параметр Endianness формата : Big
Идентификатор кодека : A_AC3
Продолжительность : 1 ч. 45 м.
Вид битрейта : Постоянный
Битрейт : 448 Кбит/сек
Каналы : 6 каналов
Расположение каналов : Front: L C R, Side: L R, LFE
Частота : 48,0 КГц
Битовая глубина : 16 бит
Метод сжатия : С потерями
Размер потока : 338 Мбайт (16%)
Язык : Russian
Default : Да
Forced : Нет

Текст #1
Идентификатор : 3
Формат : VobSub
Режим смешивания : zlib
Идентификатор кодека : S_VOBSUB
Идентификатор кодека/Информация : The same subtitle format used on DVDs
Язык : Russian
Default : Да
Forced : Нет

Текст #2
Идентификатор : 4
Формат : VobSub
Режим смешивания : zlib
Идентификатор кодека : S_VOBSUB
Идентификатор кодека/Информация : The same subtitle format used on DVDs
Язык : English
Default : Нет
Forced : Нет



   
Торрент: Зарегистрирован [Сентябрь 9, 2014, 6:30 pm]
Видео DVD Скачать торрент Магнет ссылка Смотреть онлайн
Скачать торрент
[ Размер 10.83 КБ / Просмотров 2 ]
Статус:
Проверен
---
.torrent скачан: 605 раз
Приватный: Нет (DHT включён)
Размер: 2.06 ГБ (2 215 329 821)
   
Аватара пользователя
Denny
 
Раздал: 7.49 ТБ
Скачал: 807.97 ГБ
Ратио: 1007.499
Сообщения: 1934
Зарегистрирован: Ноябрь 19, 2012, 10:49 pm
Откуда: Россия

Флаг страны: Russia

  • Похожие торренты
    Ответы
    Просмотры
    Последнее сообщение

Вернуться в Видео DVD



Кто сейчас на конференции

Сейчас эту тему просматривают: нет зарегистрированных пользователей и гости: 1

Ресурс не содержит никакой другой информации, кроме описаний отдельных файлов или их групп, имеющихся у некоторых пользователей данного ресурса. Подтверждением наличия данных файлов у пользователя может иногда являться специальный набор значений, представляющих собой результаты применения односторонних хеш-функций к этим файлам или их группам. Данные наборы значений объединяются пользователями в единое целое и могут быть выложены ими вместе с описаниями имеющихся у них файлов. Администрация данного ресурса не имеет физической возможности убедиться, что описания файлов, выложенные нашими пользователями, равно как и созданные ими наборы хешей от файлов, соответствуют реальным файлам имеющимся у пользователей, а не созданы каким-либо иным способом.
cron
Яндекс.Метрика