Грань будущего / Edge of Tomorrow (2014) WEB-DL 720p | iTunes

Фильмы в формате WEBRip/Avi и т.д.
 Статистика раздачи 
Размер: 4.01 ГБ   |  Зарегистрирован: Сентябрь 11, 2014, 4:01 pm   |   .torrent скачан: 20 раз
Сидеров: 3290  [ 0 байт/сек ]   Личеров: 1007  [ 0 байт/сек ]  

Грань будущего / Edge of Tomorrow (2014) WEB-DL 720p | iTunes

Сообщение sergey » Сентябрь 11, 2014, 4:01 pm

Информация о фильме
Название: Грань будущего
Оригинальное название: Edge of Tomorrow
Год выхода: 2014
Жанр: фантастика, боевик
Режиссер: Даг Лайман
В ролях: Том Круз, Эмили Блант, Брендан Глисон, Билл Пэкстон, Джонас Армстронг, Тони Вэй, Кик Гарри, Франц Драмех, Драгомир Мрсич, Шарлотта Райли

О фильме: История разворачивается в недалеком будущем, когда похожая на рой раса инопланетян, названных мимиками, совершает безжалостное нападение на Землю, стерев в пыль крупные города и уничтожив миллионы жизней. Армии Земли объединят силы, чтобы вступить в последний бой с полчищами инопланетян, зная, что второго шанса у них не будет.

Подполковник Билл Кейдж — ни разу не был на поле битвы, пока его не бросили в самую гущу боя неподготовленного и плохо снаряженного, фактически обрекая на смерть. Через считанные минуты Кейджа убивают, но он захватывает с собой и жизнь пришельца. И случается невозможное — он просыпается живым в начале того же адского дня, и вынужден сражаться и умирать… снова и снова. Прямой физический контакт с пришельцем замкнул временную петлю, и теперь Кейдж вновь и вновь идет в тот же бой.

Но с каждым возвращением Кейдж становится более жестоким и умным в битве с мимиками, сражаясь бок о бок с бойцом спецназа Ритой Вратаски, уничтожившей больше мимиков, чем кто бы то ни было еще на Земле. Рита и Кейдж раз за разом дают бой пришельцам, и каждое повторяющееся сражение приближает их к разгадке того, как убить инопланетных захватчиков и спасти планету.


Выпущено: США, Австралия / Warner Bros., Village Roadshow Pictures, 3 Arts Entertainment
Продолжительность: 01:53:27
Озвучивание: Дублированное [iTunes]

Файл
Формат: MKV (x264)
Качество: WEB-DL 720p
Видео: 4192 kb/s, 1280x532
Аудио: Russian / English: AC3, 384 kb/s (6 ch)





Format : Matroska
Format version : Version 4 / Version 2
File size : 4.01 GiB
Duration : 1h 53mn
Overall bit rate : 5 060 Kbps
Encoded date : UTC 2014-09-10 18:46:39
Writing application : mkvmerge v6.5.0 ('Isn't she lovely')
built on Oct 20 2013 12:50:05
Writing library : libebml v1.3.0 + libmatroska v1.4.1
DURATION : 01:53:27.520000000
NUMBER_OF_FRAMES : 212735
NUMBER_OF_BYTES : 326760960
_STATISTICS_WRITING_APP : mkvmerge v7.1.0 ('Good Love')
64bit built on Jul 27 2014 13:06:55
_STATISTICS_WRITING_DATE_UTC : 2014-09-09 05:48:41
_STATISTICS_TAGS : BPS DURATION NUMBER_OF_FRAMES NUMBER_OF_BYTES

Video
ID : 1
Format : AVC
Format/Info : Advanced Video Codec
Format profile : Main@L3.1
Format settings, CABAC : No
Format settings, ReFrames : 2 frames
Format settings, GOP : N=1
Codec ID : V_MPEG4/ISO/AVC
Duration : 1h 53mn
Bit rate : 4 192 Kbps
Width : 1 280 pixels
Height : 532 pixels
Display aspect ratio : 2.40:1
Frame rate : 23.976 fps
Color space : YUV
Chroma subsampling : 4:2:0
Bit depth : 8 bits
Scan type : Progressive
Bits/(Pixel*Frame) : 0.257
Stream size : 3.32 GiB (83%)
Language : English
Default : Yes
Forced : No
Color primaries : BT.709-5, BT.1361, IEC 61966-2-4, SMPTE RP177
Transfer characteristics : BT.709-5, BT.1361
Matrix coefficients : BT.709-5, BT.1361, IEC 61966-2-4 709, SMPTE RP177

Audio #1
ID : 2
Format : AC-3
Format/Info : Audio Coding 3
Mode extension : CM (complete main)
Codec ID : A_AC3
Duration : 1h 53mn
Bit rate mode : Constant
Bit rate : 384 Kbps
Channel(s) : 6 channels
Channel positions : Front: L C R, Side: L R, LFE
Sampling rate : 48.0 KHz
Bit depth : 16 bits
Compression mode : Lossy
Stream size : 312 MiB (8%)
Language : Russian
Default : Yes
Forced : No

Audio #2
ID : 3
Format : AC-3
Format/Info : Audio Coding 3
Mode extension : CM (complete main)
Codec ID : A_AC3
Duration : 1h 53mn
Bit rate mode : Constant
Bit rate : 384 Kbps
Channel(s) : 6 channels
Channel positions : Front: L C R, Side: L R, LFE
Sampling rate : 48.0 KHz
Bit depth : 16 bits
Compression mode : Lossy
Stream size : 312 MiB (8%)
Language : English
Default : No
Forced : No

Menu
00:00:00.000 : en:1.
00:10:25.000 : en:2.
00:17:36.000 : en:3.
00:24:46.000 : en:4.
00:35:53.000 : en:5.
00:46:22.000 : en:6.
00:54:29.000 : en:7.
01:04:53.000 : en:8.
01:12:46.000 : en:9.
01:23:01.000 : en:10.
01:32:26.000 : en:11.
01:42:45.000 : en:12.
01:45:37.000 : en:13.
   
Торрент: Зарегистрирован [Сентябрь 11, 2014, 4:01 pm]
Видео WEBRip Скачать торрент Магнет ссылка Смотреть онлайн
Скачать торрент
[ Размер 20.57 КБ / Просмотров 7 ]
Статус:
Проверен
---
.torrent скачан: 20 раз
Приватный: Нет (DHT включён)
Размер: 4.01 ГБ (4 305 943 621)
   
Аватара пользователя
sergey
 
Раздал: 42.54 ТБ
Скачал: 198.69 ГБ
Ратио: 265.234
Сообщения: 5348
Зарегистрирован: Август 6, 2012, 2:11 pm
Откуда: СССР

Флаг страны: СССР

  • Похожие торренты
    Ответы
    Просмотры
    Последнее сообщение

Вернуться в Видео WEBRip



Кто сейчас на конференции

Сейчас эту тему просматривают: нет зарегистрированных пользователей и гости: 1

Ресурс не содержит никакой другой информации, кроме описаний отдельных файлов или их групп, имеющихся у некоторых пользователей данного ресурса. Подтверждением наличия данных файлов у пользователя может иногда являться специальный набор значений, представляющих собой результаты применения односторонних хеш-функций к этим файлам или их группам. Данные наборы значений объединяются пользователями в единое целое и могут быть выложены ими вместе с описаниями имеющихся у них файлов. Администрация данного ресурса не имеет физической возможности убедиться, что описания файлов, выложенные нашими пользователями, равно как и созданные ими наборы хешей от файлов, соответствуют реальным файлам имеющимся у пользователей, а не созданы каким-либо иным способом.
cron
Яндекс.Метрика