Однажды в лесу / Once Upon a Forest / Il etait une foret (2013) BDRip 720p от NNNB

Телевизионные передачи, ТВ фильмы
 Статистика раздачи 
Размер: 3.63 ГБ   |  Зарегистрирован: Сентябрь 20, 2014, 9:46 pm   |   .torrent скачан: 20 раз
Сидеров: 101  [ 0 байт/сек ]   Личеров: 68  [ 0 байт/сек ]  

Однажды в лесу / Once Upon a Forest / Il etait une foret (2013) BDRip 720p от NNNB

Сообщение Denny » Сентябрь 20, 2014, 9:46 pm



Название: Однажды в лесу
Оригинальное название: Once Upon a Forest (Il etait une foret)
Год выпуска: 2013
Жанр: Документальный, познавательный, флора, фауна
Выпущено: Франция, Bonne Pioche, France 3 Cinéma
Режиссер: Люк Жаке
В ролях: Франсис Алле, Мишель Папинески

Перевод: Профессиональный (одноголосый)

Сюжет фильма

Фильм приглашает Вас отправиться в путешествие по местам, ошеломительным по своей красоте, которые вы никогда не видели раньше. Опираясь на последние научные исследования авторам фильма удалось запечатлеть всю прелесть тропического леса, растущего прямо на глазах у зрителей. Фильм представляет собой полное погружение в мир первозданной природы, позволяющий зрителям открывать самые сокровенные тайны живой природы. Добро пожаловать в самое сердце жизни на Земле!

«Путешествие, которое перевернёт ваше представление о Земле»

Файл
Качество: BDRip 720p (исходник Blu-ray)
Видео: 1280x720, 5 813 Кбит/сек, 23.976 кадр/сек, AVC, x264, High@L4.1, 0.258 Бит/[Пиксели*Кадры], crf
Аудио 1: AC3 2.0 48 kHz 192 kbps - Профессиональный (одноголосый) - Текст читает - Академик Российской академии естественных наук (РАЕН) Николай Дроздов
Аудио 2: AC3 5.1 48 kHz 640 kbps - French

Продолжительность: 01:18:12
Автор рипа: Сообщество:

Format : Matroska
Format version : Version 2
File size : 3.63 GiB
Duration : 1h 18mn
Overall bit rate : 6 641 Kbps
Movie name : Odnazhdy v lesu.(2013).BDRip.720p.[denis100]
Encoded date : UTC 2014-09-20 05:46:34
Writing application : mkvmerge v5.8.0 ('No Sleep / Pillow') built on Sep 2 2012 15:37:04
Writing library : libebml v1.2.3 + libmatroska v1.3.0

Video
ID : 1
Format : AVC
Format/Info : Advanced Video Codec
Format profile : High@L4.1
Format settings, CABAC : Yes
Format settings, ReFrames : 9 frames
Codec ID : V_MPEG4/ISO/AVC
Duration : 1h 18mn
Bit rate : 5 677 Kbps
Width : 1 280 pixels
Height : 720 pixels
Display aspect ratio : 16:9
Frame rate mode : Constant
Frame rate : 23.976 fps
Color space : YUV
Chroma subsampling : 4:2:0
Bit depth : 8 bits
Scan type : Progressive
Bits/(Pixel*Frame) : 0.257
Stream size : 3.10 GiB (85%)
Title : Odnazhdy v lesu.(2013).BDRip.720p.[denis100]
Writing library : x264 core 142 r2453 ea0ca51
Encoding settings : cabac=1 / ref=9 / deblock=1:-3:-3 / analyse=0x3:0x133 / me=umh / subme=11 / psy=1 / psy_rd=1.00:0.10 / mixed_ref=1 / me_range=32 / chroma_me=1 / trellis=2 / 8x8dct=1 / cqm=0 / deadzone=21,11 / fast_pskip=0 / chroma_qp_offset=-3 / threads=6 / lookahead_threads=1 / sliced_threads=0 / nr=0 / decimate=1 / interlaced=0 / bluray_compat=0 / constrained_intra=0 / bframes=8 / b_pyramid=2 / b_adapt=2 / b_bias=0 / direct=3 / weightb=1 / open_gop=0 / weightp=2 / keyint=240 / keyint_min=23 / scenecut=40 / intra_refresh=0 / rc=crf / mbtree=0 / crf=18.0 / qcomp=0.60 / qpmin=0 / qpmax=69 / qpstep=4 / ip_ratio=1.40 / pb_ratio=1.30 / aq=2:0.90
Language : English
Default : Yes
Forced : No

Audio #1
ID : 2
Format : AC-3
Format/Info : Audio Coding 3
Mode extension : CM (complete main)
Format settings, Endianness : Big
Codec ID : A_AC3
Duration : 1h 18mn
Bit rate mode : Constant
Bit rate : 192 Kbps
Channel(s) : 2 channels
Channel positions : Front: L R
Sampling rate : 48.0 KHz
Bit depth : 16 bits
Compression mode : Lossy
Stream size : 107 MiB (3%)
Title : Профессиональный oдноголосый, Николай Дроздов
Language : Russian
Default : Yes
Forced : No

Audio #2
ID : 3
Format : AC-3
Format/Info : Audio Coding 3
Mode extension : CM (complete main)
Format settings, Endianness : Big
Codec ID : A_AC3
Duration : 1h 18mn
Bit rate mode : Constant
Bit rate : 640 Kbps
Channel(s) : 6 channels
Channel positions : Front: L C R, Side: L R, LFE
Sampling rate : 48.0 KHz
Bit depth : 16 bits
Compression mode : Lossy
Stream size : 358 MiB (10%)
Title : French
Language : French
Default : No
Forced : No

Menu
00:00:00.000 : en:
00:06:27.804 : en:
00:12:44.555 : en:
00:17:59.286 : en:
00:26:41.099 : en:
00:33:10.238 : en:
00:41:09.967 : en:
00:48:24.526 : en:
00:54:33.061 : en:
01:01:44.826 : en:
01:10:08.204 : en:
01:15:00.537 : en:
01:18:12.312 : en:

x264 [info]: frame I:779 Avg QP:18.94 size:172639
x264 [info]: frame P:24617 Avg QP:20.79 size: 64680
x264 [info]: frame B:87107 Avg QP:22.68 size: 19281
   
Торрент: Зарегистрирован [Сентябрь 20, 2014, 9:46 pm]
Телевидение Скачать торрент Магнет ссылка Смотреть онлайн
Скачать торрент
[ Размер 18.66 КБ / Просмотров 18 ]
Статус:
Проверен
---
.torrent скачан: 20 раз
Приватный: Нет (DHT включён)
Размер: 3.63 ГБ (3 895 508 686)
   
Аватара пользователя
Denny
 
Раздал: 7.49 ТБ
Скачал: 807.97 ГБ
Ратио: 1007.499
Сообщения: 1934
Зарегистрирован: Ноябрь 19, 2012, 10:49 pm
Откуда: Россия

Флаг страны: Russia

Вернуться в Телевидение



Кто сейчас на конференции

Сейчас эту тему просматривают: нет зарегистрированных пользователей и гости: 1

Ресурс не содержит никакой другой информации, кроме описаний отдельных файлов или их групп, имеющихся у некоторых пользователей данного ресурса. Подтверждением наличия данных файлов у пользователя может иногда являться специальный набор значений, представляющих собой результаты применения односторонних хеш-функций к этим файлам или их группам. Данные наборы значений объединяются пользователями в единое целое и могут быть выложены ими вместе с описаниями имеющихся у них файлов. Администрация данного ресурса не имеет физической возможности убедиться, что описания файлов, выложенные нашими пользователями, равно как и созданные ими наборы хешей от файлов, соответствуют реальным файлам имеющимся у пользователей, а не созданы каким-либо иным способом.
cron
Яндекс.Метрика