(Pop)ABBA - 40-40 The Best Selection (2CD) - 2014 [APE, (image+cue), lossless]

Музыка всех стилей и направлений, аудиокниги
 Статистика раздачи 
Размер: 1.1 ГБ   |  Зарегистрирован: Сентябрь 22, 2014, 6:49 pm   |   .torrent скачан: 26 раз
Сидеров: 69  [ 0 байт/сек ]   Личеров: 10  [ 0 байт/сек ]  

(Pop)ABBA - 40-40 The Best Selection (2CD) - 2014 [APE, (image+cue), lossless]

Сообщение Denny » Сентябрь 22, 2014, 6:49 pm




ABBA - 40-40 The Best Selection (2CD)


Страна: Sweden
Страна производитель диска: Japan
Год выпуска: 2014
Лейбл: Polar
Номер по каталогу: UICY - 15279/80
Жанр: Pop
Формат: APE
тип рипа: (Image + *cue)
Битрейт аудио: Lossless
Продолжительность:02:37:58


01. Dancing Queen (03:52)
02. That's Me (03:17)
03. Take A Chance On Me (04:08)
04. Chiquitita (05:27)
05. SOS (03:22)
06. Gimme! Gimme! Gimme! (A Man After Midnight) (04:50)
07. Super Trouper (04:13)
08. Ring Ring (03:06)
09. Honey, Honey (02:56)
10. She's My Kind Of Girl (02:47)
11. Tiger (02:57)
12. Eagle (05:51)
13. Move On (04:44)
14. Hey, Hey Helen (03:17)
15. Our Last Summer (04:20)
16. One Of Us (03:56)
17. The Winner Takes It All (04:56)
18. Slipping Through My Fingers (03:55)
19. My Love, My Life (03:54)
20. Happy New Year (04:26)
Код:
Код: Выделить всё
Exact Audio Copy V0.99 prebeta 5 from 4. May 2009

EAC extraction logfile from 8. September 2014, 17:34

ABBA / 40/40 The Best Selection (Disc 1)

Used drive  : hp      CDDVDW SH-216BB   Adapter: 0  ID: 0

Read mode               : Secure
Utilize accurate stream : Yes
Defeat audio cache      : Yes
Make use of C2 pointers : No

Read offset correction                      : 6
Overread into Lead-In and Lead-Out          : No
Fill up missing offset samples with silence : Yes
Delete leading and trailing silent blocks   : No
Null samples used in CRC calculations       : Yes
Used interface                              : Native Win32 interface for Win NT & 2000

Used output format              : Monkey's Audio Lossless Encoder
Selected bitrate                : High Lossless Compression
Quality                         : High
Add ID3 tag                     : No
Command line compressor         : C:\Program Files (x86)\Monkey's Audio\MAC.exe

TOC of the extracted CD

     Track |   Start  |  Length  | Start sector | End sector
    ---------------------------------------------------------
        1  |  0:00.00 |  3:52.43 |         0    |    17442
        2  |  3:52.43 |  3:17.07 |     17443    |    32224
        3  |  7:09.50 |  4:08.34 |     32225    |    50858
        4  | 11:18.09 |  5:27.31 |     50859    |    75414
        5  | 16:45.40 |  3:22.61 |     75415    |    90625
        6  | 20:08.26 |  4:50.47 |     90626    |   112422
        7  | 24:58.73 |  4:13.43 |    112423    |   131440
        8  | 29:12.41 |  3:06.06 |    131441    |   145396
        9  | 32:18.47 |  2:56.58 |    145397    |   158654
       10  | 35:15.30 |  2:47.22 |    158655    |   171201
       11  | 38:02.52 |  2:57.49 |    171202    |   184525
       12  | 41:00.26 |  5:51.66 |    184526    |   210916
       13  | 46:52.17 |  4:44.74 |    210917    |   232290
       14  | 51:37.16 |  3:17.12 |    232291    |   247077
       15  | 54:54.28 |  4:20.63 |    247078    |   266640
       16  | 59:15.16 |  3:56.43 |    266641    |   284383
       17  | 63:11.59 |  4:56.58 |    284384    |   306641
       18  | 68:08.42 |  3:55.41 |    306642    |   324307
       19  | 72:04.08 |  3:54.26 |    324308    |   341883
       20  | 75:58.34 |  4:26.11 |    341884    |   361844

Range status and errors

Selected range

     Filename :ABBA - 40 40 The Best Selection (Disc 1).wav

     Peak level 100.0 %
     Range quality 100.0 %
     Test CRC B00738C0
     Copy CRC B00738C0
     Copy OK

No errors occurred

AccurateRip summary

Track  1  cannot be verified as accurate (confidence 1)  [6660DA8A], AccurateRip returned [34AD3E92]
Track  2  cannot be verified as accurate (confidence 1)  [78D4E2B4], AccurateRip returned [00313F3D]
Track  3  cannot be verified as accurate (confidence 1)  [82F47093], AccurateRip returned [DA88C40C]
Track  4  cannot be verified as accurate (confidence 1)  [59F78A87], AccurateRip returned [5B4B668C]
Track  5  cannot be verified as accurate (confidence 1)  [F45FDC3B], AccurateRip returned [2C0D9A50]
Track  6  cannot be verified as accurate (confidence 1)  [979AC82E], AccurateRip returned [9E1F6C07]
Track  7  cannot be verified as accurate (confidence 1)  [8A4CA712], AccurateRip returned [2DC517BE]
Track  8  cannot be verified as accurate (confidence 1)  [CD8C90B3], AccurateRip returned [BD2688EA]
Track  9  cannot be verified as accurate (confidence 1)  [38186F4D], AccurateRip returned [D0FDB4BF]
Track 10  cannot be verified as accurate (confidence 1)  [C5D6D76D], AccurateRip returned [439B33F6]
Track 11  cannot be verified as accurate (confidence 1)  [AE476344], AccurateRip returned [EA457392]
Track 12  cannot be verified as accurate (confidence 1)  [B5227A64], AccurateRip returned [ECA12974]
Track 13  cannot be verified as accurate (confidence 1)  [12E362DC], AccurateRip returned [BE12D479]
Track 14  cannot be verified as accurate (confidence 1)  [195340E7], AccurateRip returned [4C6E9217]
Track 15  cannot be verified as accurate (confidence 1)  [6C38DD7C], AccurateRip returned [E8109183]
Track 16  cannot be verified as accurate (confidence 1)  [7460135C], AccurateRip returned [EBA9E36B]
Track 17  cannot be verified as accurate (confidence 1)  [1DB9F622], AccurateRip returned [B2149963]
Track 18  cannot be verified as accurate (confidence 1)  [9713F064], AccurateRip returned [242F0215]
Track 19  cannot be verified as accurate (confidence 1)  [5AE328CF], AccurateRip returned [1BDD69FC]
Track 20  cannot be verified as accurate (confidence 1)  [EF69BE61], AccurateRip returned [49B65427]

No tracks could be verified as accurate
You may have a different pressing from the one(s) in the database

End of status report

Код:
Код: Выделить всё
REM GENRE Pop
REM DATE 2014
REM DISCID 0912D814
REM COMMENT "ExactAudioCopy v0.99pb5"
PERFORMER "ABBA"
TITLE "40/40 The Best Selection (Disc 1)"
FILE "ABBA - 40 40 The Best Selection (Disc 1).ape" WAVE
  TRACK 01 AUDIO
    TITLE "Dancing Queen"
    PERFORMER "ABBA"
    INDEX 01 00:00:00
  TRACK 02 AUDIO
    TITLE "That's Me"
    PERFORMER "ABBA"
    INDEX 00 03:51:07
    INDEX 01 03:52:43
  TRACK 03 AUDIO
    TITLE "Take A Chance On Me"
    PERFORMER "ABBA"
    INDEX 00 07:08:14
    INDEX 01 07:09:50
  TRACK 04 AUDIO
    TITLE "Chiquitita"
    PERFORMER "ABBA"
    INDEX 00 11:16:48
    INDEX 01 11:18:09
  TRACK 05 AUDIO
    TITLE "SOS"
    PERFORMER "ABBA"
    INDEX 00 16:44:04
    INDEX 01 16:45:40
  TRACK 06 AUDIO
    TITLE "Gimme! Gimme! Gimme! (A Man After Midnight)"
    PERFORMER "ABBA"
    INDEX 00 20:06:65
    INDEX 01 20:08:26
  TRACK 07 AUDIO
    TITLE "Super Trouper"
    PERFORMER "ABBA"
    INDEX 00 24:57:37
    INDEX 01 24:58:73
  TRACK 08 AUDIO
    TITLE "Ring Ring"
    PERFORMER "ABBA"
    INDEX 00 29:11:05
    INDEX 01 29:12:41
  TRACK 09 AUDIO
    TITLE "Honey, Honey"
    PERFORMER "ABBA"
    INDEX 00 32:17:11
    INDEX 01 32:18:47
  TRACK 10 AUDIO
    TITLE "She's My Kind Of Girl"
    PERFORMER "ABBA"
    INDEX 00 35:13:69
    INDEX 01 35:15:30
  TRACK 11 AUDIO
    TITLE "Tiger"
    PERFORMER "ABBA"
    INDEX 00 38:01:16
    INDEX 01 38:02:52
  TRACK 12 AUDIO
    TITLE "Eagle"
    PERFORMER "ABBA"
    INDEX 00 40:58:65
    INDEX 01 41:00:26
  TRACK 13 AUDIO
    TITLE "Move On"
    PERFORMER "ABBA"
    INDEX 00 46:50:56
    INDEX 01 46:52:17
  TRACK 14 AUDIO
    TITLE "Hey, Hey Helen"
    PERFORMER "ABBA"
    INDEX 00 51:35:55
    INDEX 01 51:37:16
  TRACK 15 AUDIO
    TITLE "Our Last Summer"
    PERFORMER "ABBA"
    INDEX 00 54:52:67
    INDEX 01 54:54:28
  TRACK 16 AUDIO
    TITLE "One Of Us"
    PERFORMER "ABBA"
    INDEX 00 59:13:55
    INDEX 01 59:15:16
  TRACK 17 AUDIO
    TITLE "The Winner Takes It All"
    PERFORMER "ABBA"
    INDEX 00 63:10:23
    INDEX 01 63:11:59
  TRACK 18 AUDIO
    TITLE "Slipping Through My Fingers"
    PERFORMER "ABBA"
    INDEX 00 68:07:06
    INDEX 01 68:08:42
  TRACK 19 AUDIO
    TITLE "My Love, My Life"
    PERFORMER "ABBA"
    INDEX 00 72:02:47
    INDEX 01 72:04:08
  TRACK 20 AUDIO
    TITLE "Happy New Year"
    PERFORMER "ABBA"
    INDEX 00 75:56:73
    INDEX 01 75:58:34

01. Waterloo (02:46)
02. Mamma Mia (03:32)
03. Money, Money, Money (03:07)
04. I Do, I Do, I Do, I Do, I Do (03:17)
05. Voulez-Vous (05:08)
06. Summer Night City (03:34)
07. Does Your Mother Know (03:15)
08. On And On And On (03:42)
09. When I Kissed The Teacher (03:03)
10. Fernando (04:14)
11. Knowing Me, Knowing You (04:03)
12. Angeleyes (04:22)
13. Lay All Your Love On Me (04:34)
14. The Name Of The Game (04:53)
15. Under Attack (03:49)
16. Hasta Manana (03:12)
17. I Have A Dream (04:45)
18. I've Been Waiting For You (03:41)
19. One Man, One Woman (04:37)
20. Thank You For The Music (03:50)
Код:
Код: Выделить всё
Exact Audio Copy V0.99 prebeta 5 from 4. May 2009

EAC extraction logfile from 8. September 2014, 18:42

ABBA / 40/40 The Best Selection (Disc 2)

Used drive  : hp      CDDVDW SH-216BB   Adapter: 0  ID: 0

Read mode               : Secure
Utilize accurate stream : Yes
Defeat audio cache      : Yes
Make use of C2 pointers : No

Read offset correction                      : 6
Overread into Lead-In and Lead-Out          : No
Fill up missing offset samples with silence : Yes
Delete leading and trailing silent blocks   : No
Null samples used in CRC calculations       : Yes
Used interface                              : Native Win32 interface for Win NT & 2000

Used output format              : Monkey's Audio Lossless Encoder
Selected bitrate                : High Lossless Compression
Quality                         : High
Add ID3 tag                     : No
Command line compressor         : C:\Program Files (x86)\Monkey's Audio\MAC.exe

TOC of the extracted CD

     Track |   Start  |  Length  | Start sector | End sector
    ---------------------------------------------------------
        1  |  0:00.00 |  2:46.43 |         0    |    12492
        2  |  2:46.43 |  3:32.34 |     12493    |    28426
        3  |  6:19.02 |  3:07.61 |     28427    |    42512
        4  |  9:26.63 |  3:17.14 |     42513    |    57301
        5  | 12:44.02 |  5:08.23 |     57302    |    80424
        6  | 17:52.25 |  3:34.56 |     80425    |    96530
        7  | 21:27.06 |  3:15.02 |     96531    |   111157
        8  | 24:42.08 |  3:42.30 |    111158    |   127837
        9  | 28:24.38 |  3:03.09 |    127838    |   141571
       10  | 31:27.47 |  4:14.57 |    141572    |   160678
       11  | 35:42.29 |  4:03.22 |    160679    |   178925
       12  | 39:45.51 |  4:22.11 |    178926    |   198586
       13  | 44:07.62 |  4:34.32 |    198587    |   219168
       14  | 48:42.19 |  4:53.70 |    219169    |   241213
       15  | 53:36.14 |  3:49.24 |    241214    |   258412
       16  | 57:25.38 |  3:12.58 |    258413    |   272870
       17  | 60:38.21 |  4:45.40 |    272871    |   294285
       18  | 65:23.61 |  3:41.71 |    294286    |   310931
       19  | 69:05.57 |  4:37.14 |    310932    |   331720
       20  | 73:42.71 |  3:50.45 |    331721    |   349015

Range status and errors

Selected range

     Filename :ABBA - 40 40 The Best Selection (Disc 2).wav

     Peak level 100.0 %
     Range quality 99.9 %
     Test CRC 427CCD80
     Copy CRC 427CCD80
     Copy OK

No errors occurred

AccurateRip summary

Track  1  cannot be verified as accurate (confidence 2)  [2615A0A3], AccurateRip returned [EAF6BEEE]
Track  2  cannot be verified as accurate (confidence 2)  [628109B6], AccurateRip returned [855E735B]
Track  3  cannot be verified as accurate (confidence 2)  [D967BAEB], AccurateRip returned [15ED9E45]
Track  4  cannot be verified as accurate (confidence 2)  [41F27DF8], AccurateRip returned [E7A3CD99]
Track  5  cannot be verified as accurate (confidence 2)  [75EDD9F2], AccurateRip returned [9260429D]
Track  6  cannot be verified as accurate (confidence 2)  [6BE6BC49], AccurateRip returned [24C6DC17]
Track  7  cannot be verified as accurate (confidence 2)  [782F6AC0], AccurateRip returned [DB8BDFF7]
Track  8  cannot be verified as accurate (confidence 2)  [FAD536DF], AccurateRip returned [84021CDA]
Track  9  cannot be verified as accurate (confidence 2)  [72D276FA], AccurateRip returned [C8CA5662]
Track 10  cannot be verified as accurate (confidence 2)  [54211266], AccurateRip returned [73C1D85E]
Track 11  cannot be verified as accurate (confidence 2)  [DE33AC53], AccurateRip returned [B5113F19]
Track 12  cannot be verified as accurate (confidence 2)  [D711E87F], AccurateRip returned [AA17D682]
Track 13  cannot be verified as accurate (confidence 2)  [343F1F19], AccurateRip returned [43C92594]
Track 14  cannot be verified as accurate (confidence 2)  [CD7F27C4], AccurateRip returned [C5EE7673]
Track 15  cannot be verified as accurate (confidence 2)  [796FB7D5], AccurateRip returned [582FD88E]
Track 16  cannot be verified as accurate (confidence 2)  [2148992C], AccurateRip returned [167A8D31]
Track 17  cannot be verified as accurate (confidence 2)  [45FF1B56], AccurateRip returned [56AD94D6]
Track 18  cannot be verified as accurate (confidence 2)  [B25EA5BC], AccurateRip returned [A45E9DE1]
Track 19  cannot be verified as accurate (confidence 2)  [806582D6], AccurateRip returned [A6300C72]
Track 20  cannot be verified as accurate (confidence 2)  [5983E450], AccurateRip returned [5D49E13A]

No tracks could be verified as accurate
You may have a different pressing from the one(s) in the database

End of status report

Код:
Код: Выделить всё
REM GENRE Pop
REM DATE 2014
REM DISCID 40122D14
REM COMMENT "ExactAudioCopy v0.99pb5"
PERFORMER "ABBA"
TITLE "40/40 The Best Selection (Disc 2)"
FILE "ABBA - 40 40 The Best Selection (Disc 2).ape" WAVE
  TRACK 01 AUDIO
    TITLE "Waterloo"
    PERFORMER "ABBA"
    INDEX 01 00:00:00
  TRACK 02 AUDIO
    TITLE "Mamma Mia"
    PERFORMER "ABBA"
    INDEX 00 02:45:07
    INDEX 01 02:46:43
  TRACK 03 AUDIO
    TITLE "Money, Money, Money"
    PERFORMER "ABBA"
    INDEX 00 06:17:41
    INDEX 01 06:19:02
  TRACK 04 AUDIO
    TITLE "I Do, I Do, I Do, I Do, I Do"
    PERFORMER "ABBA"
    INDEX 00 09:25:27
    INDEX 01 09:26:63
  TRACK 05 AUDIO
    TITLE "Voulez-Vous"
    PERFORMER "ABBA"
    INDEX 00 12:42:41
    INDEX 01 12:44:02
  TRACK 06 AUDIO
    TITLE "Summer Night City"
    PERFORMER "ABBA"
    INDEX 00 17:50:64
    INDEX 01 17:52:25
  TRACK 07 AUDIO
    TITLE "Does Your Mother Know"
    PERFORMER "ABBA"
    INDEX 00 21:25:45
    INDEX 01 21:27:06
  TRACK 08 AUDIO
    TITLE "On And On And On"
    PERFORMER "ABBA"
    INDEX 00 24:40:47
    INDEX 01 24:42:08
  TRACK 09 AUDIO
    TITLE "When I Kissed The Teacher"
    PERFORMER "ABBA"
    INDEX 00 28:23:02
    INDEX 01 28:24:38
  TRACK 10 AUDIO
    TITLE "Fernando"
    PERFORMER "ABBA"
    INDEX 00 31:26:11
    INDEX 01 31:27:47
  TRACK 11 AUDIO
    TITLE "Knowing Me, Knowing You"
    PERFORMER "ABBA"
    INDEX 00 35:40:68
    INDEX 01 35:42:29
  TRACK 12 AUDIO
    TITLE "Angeleyes"
    PERFORMER "ABBA"
    INDEX 00 39:44:15
    INDEX 01 39:45:51
  TRACK 13 AUDIO
    TITLE "Lay All Your Love On Me"
    PERFORMER "ABBA"
    INDEX 00 44:06:26
    INDEX 01 44:07:62
  TRACK 14 AUDIO
    TITLE "The Name Of The Game"
    PERFORMER "ABBA"
    INDEX 00 48:40:58
    INDEX 01 48:42:19
  TRACK 15 AUDIO
    TITLE "Under Attack"
    PERFORMER "ABBA"
    INDEX 00 53:34:53
    INDEX 01 53:36:14
  TRACK 16 AUDIO
    TITLE "Hasta Manana"
    PERFORMER "ABBA"
    INDEX 00 57:24:02
    INDEX 01 57:25:38
  TRACK 17 AUDIO
    TITLE "I Have A Dream"
    PERFORMER "ABBA"
    INDEX 00 60:36:60
    INDEX 01 60:38:21
  TRACK 18 AUDIO
    TITLE "I've Been Waiting For You"
    PERFORMER "ABBA"
    INDEX 00 65:22:25
    INDEX 01 65:23:61
  TRACK 19 AUDIO
    TITLE "One Man, One Woman"
    PERFORMER "ABBA"
    INDEX 00 69:04:21
    INDEX 01 69:05:57
  TRACK 20 AUDIO
    TITLE "Thank You For The Music"
    PERFORMER "ABBA"
    INDEX 00 73:41:35
    INDEX 01 73:42:71
   
Торрент: Зарегистрирован [Сентябрь 22, 2014, 6:49 pm]
Аудио Скачать торрент Магнет ссылка
Скачать торрент
[ Размер 12.62 КБ / Просмотров 2 ]
Статус:
Проверен
---
.torrent скачан: 26 раз
Приватный: Нет (DHT включён)
Размер: 1.1 ГБ (1 180 786 458)
   
Аватара пользователя
Denny
 
Раздал: 7.49 ТБ
Скачал: 807.97 ГБ
Ратио: 1007.499
Сообщения: 1934
Зарегистрирован: Ноябрь 19, 2012, 10:49 pm
Откуда: Россия

Флаг страны: Russia

  • Похожие торренты
    Ответы
    Просмотры
    Последнее сообщение

Вернуться в Аудио



Кто сейчас на конференции

Сейчас эту тему просматривают: нет зарегистрированных пользователей и гости: 1

cron
Ресурс не содержит никакой другой информации, кроме описаний отдельных файлов или их групп, имеющихся у некоторых пользователей данного ресурса. Подтверждением наличия данных файлов у пользователя может иногда являться специальный набор значений, представляющих собой результаты применения односторонних хеш-функций к этим файлам или их группам. Данные наборы значений объединяются пользователями в единое целое и могут быть выложены ими вместе с описаниями имеющихся у них файлов. Администрация данного ресурса не имеет физической возможности убедиться, что описания файлов, выложенные нашими пользователями, равно как и созданные ими наборы хешей от файлов, соответствуют реальным файлам имеющимся у пользователей, а не созданы каким-либо иным способом.
cron
Яндекс.Метрика