Исправление / Спасенная / Reclaim (2014) BDRip | L1

Фильмы в формате DVD
 Статистика раздачи 
Размер: 1.37 ГБ   |  Зарегистрирован: Сентябрь 24, 2014, 8:55 pm   |   .torrent скачан: 2479 раз
Сидеров: 586  [ 0 байт/сек ]   Личеров: 284  [ 0 байт/сек ]  

Исправление / Спасенная / Reclaim (2014) BDRip | L1

Сообщение Denny » Сентябрь 24, 2014, 8:55 pm



Информация о фильме
Название: Исправление / Спасенная
Оригинальное название: Reclaim
Год выхода: 2014
Жанр: Триллер
Режиссер: Алан Уайт
В ролях: Джон Кьюсак, Райан Филипп, Рашель Лефевр, Джеки Уивер, Луис Гусман, Бриана Рой, Яндрес Бургос, Лиз Вероника Фу, Алекс Синтрон, Милли Руперто

О фильме:
Американская пара становится жертвой аферы во время своего путешествия в Пуэрто-Рико. И теперь им придется рискнуть своей жизнью ради спасения собственной дочери.

Страна: США, Китай, Малайзия
Продолжительность: 01:36:02
Перевод: Любительский одноголосый закадровый (qwerty)

Файл
Кодек: MPEG-4 Video (XVID)
Качество: BDRip | L1 qwerty
Видео: MPEG4, XviD, 720x384 (1.860), 23.976 fps, 1 560 Kbps (0.235 bit/pixel)
Звук: AC-3, 48.0 KHz, 6 ch, 448 Kbps, CBR (Russian)
Субтитры: Нет

General
Unique ID : 211784281942073527554234605355769960864 (0x9F542B45D49B7F82B2BDF6425FDA99A0)
Complete name : Reclaim.2014.mkv
Format : Matroska
Format version : Version 4 / Version 2
File size : 1.37 GiB
Duration : 1h 36mn
Overall bit rate : 2 049 Kbps
Encoded date : UTC 2014-09-24 02:47:51
Writing application : mkvmerge v6.8.0 ('Theme for Great Cities') 32bit built on Mar 2 2014 21:27:07
Writing library : libebml v1.3.0 + libmatroska v1.4.1

Video
ID : 1
Format : MPEG-4 Visual
Format profile : Simple@L5
Format settings, BVOP : No
Format settings, QPel : No
Format settings, GMC : No warppoints
Format settings, Matrix : Default (H.263)
Codec ID : XVID
Codec ID/Hint : XviD
Duration : 1h 36mn
Bit rate : 1 560 Kbps
Width : 720 pixels
Height : 384 pixels
Display aspect ratio : 1.85:1
Frame rate mode : Variable
Frame rate : 23.976 fps
Color space : YUV
Chroma subsampling : 4:2:0
Bit depth : 8 bits
Scan type : Progressive
Compression mode : Lossy
Bits/(Pixel*Frame) : 0.235
Stream size : 1.05 GiB (76%)
Writing library : Lavc56.1.100
Default : Yes
Forced : No

Audio
ID : 2
Format : AC-3
Format/Info : Audio Coding 3
Mode extension : CM (complete main)
Format settings, Endianness : Big
Codec ID : A_AC3
Duration : 1h 36mn
Bit rate mode : Constant
Bit rate : 448 Kbps
Channel(s) : 6 channels
Channel positions : Front: L C R, Side: L R, LFE
Sampling rate : 48.0 KHz
Bit depth : 16 bits
Compression mode : Lossy
Stream size : 308 MiB (22%)
Title : Русская дорожка_Qwerty
Language : Russian
Default : Yes
Forced : No
   
Торрент: Зарегистрирован [Сентябрь 24, 2014, 8:55 pm]
Видео DVD Скачать торрент Магнет ссылка Смотреть онлайн
Скачать торрент
[ Размер 14.29 КБ / Просмотров 0 ]
Статус:
Проверен
---
.torrent скачан: 2479 раз
Приватный: Нет (DHT включён)
Размер: 1.37 ГБ (1 475 578 676)
   
Аватара пользователя
Denny
 
Раздал: 7.49 ТБ
Скачал: 807.97 ГБ
Ратио: 1007.499
Сообщения: 1934
Зарегистрирован: Ноябрь 19, 2012, 10:49 pm
Откуда: Россия

Флаг страны: Russia

Вернуться в Видео DVD



Кто сейчас на конференции

Сейчас эту тему просматривают: нет зарегистрированных пользователей и гости: 1

Ресурс не содержит никакой другой информации, кроме описаний отдельных файлов или их групп, имеющихся у некоторых пользователей данного ресурса. Подтверждением наличия данных файлов у пользователя может иногда являться специальный набор значений, представляющих собой результаты применения односторонних хеш-функций к этим файлам или их группам. Данные наборы значений объединяются пользователями в единое целое и могут быть выложены ими вместе с описаниями имеющихся у них файлов. Администрация данного ресурса не имеет физической возможности убедиться, что описания файлов, выложенные нашими пользователями, равно как и созданные ими наборы хешей от файлов, соответствуют реальным файлам имеющимся у пользователей, а не созданы каким-либо иным способом.
cron
Яндекс.Метрика