Scooter - Live at Uebel and Gefahrlich Hamburg (2014) WEB-DL 720p

Телевизионные передачи, ТВ фильмы
 Статистика раздачи 
Размер: 1.86 ГБ   |  Зарегистрирован: Сентябрь 24, 2014, 8:58 pm   |   .torrent скачан: 127 раз
Сидеров: 119  [ 0 байт/сек ]   Личеров: 43  [ 0 байт/сек ]  

Scooter - Live at Uebel and Gefahrlich Hamburg (2014) WEB-DL 720p

Сообщение Denny » Сентябрь 24, 2014, 8:58 pm



Информация о фильме
Оригинальное название: Scooter - Live at Uebel & Gefährlich Hamburg
Год выхода: 2014
Жанр: Hardcore, techno

О фильме:
Scooter представляет особенный концерт - Live at Uebel & Gefährlich который состоялся в одном из ночных клубов Гамбурга. Концерт проходил в рамках гастрольного тура группы 20 Years of Hardcore

Страна: Германия
Студия: Sheffield Tunes
Продолжительность: 01:42:53

Файл
Качество: WEB-DL 720p
Видео: MPEG-4 AVC, 2389 Кбит/с, 1280x720
Звук: AAC, 2 ch, 192 Кбит/с

01. Hyper, Hyper!
02. Move Your Ass!
03. Friends (Turbo)
04. Endless Summer
05. Back In The UK & Rebel Yell
06. I'm Raving
07. Fire!
08. How Much Is The Fish?
09. Posse, I Need You On The Floor!
10. Faster, Harder Scooter! & Ramp! (The Logical Song)
11. Nessaja
12. Weekend!
13. The Night
14. Maria (I like it loud!)
15. Jigga Jigga!
16. Shake That!
17. One (Always Hardcore)
18. The Question Is, what is the Question & And No Matches
19. I'm Lonely
20. Ti Sento
21. 4 am
General
Complete name : Scooter - Live at Uebel & Gefährlich Hamburg 2013 (20 Years of Hardcore pre-tour) [HD].mp4
Format : MPEG-4
Format profile : Base Media / Version 2
Codec ID : mp42
File size : 1.86 GiB
Duration : 1h 42mn
Overall bit rate mode : Variable
Overall bit rate : 2 584 Kbps
Encoded date : UTC 2014-09-12 05:59:41
Tagged date : UTC 2014-09-12 05:59:41
Video #1
ID : 1
Format : AVC
Format/Info : Advanced Video Codec
Format profile : High@L3.1
Format settings, CABAC : Yes
Format settings, ReFrames : 1 frame
Format settings, GOP : M=1, N=60
Codec ID : avc1
Codec ID/Info : Advanced Video Coding
Duration : 1h 42mn
Bit rate : 2 389 Kbps
Maximum bit rate : 7 339 Kbps
Width : 1 280 pixels
Height : 720 pixels
Display aspect ratio : 16:9
Frame rate mode : Constant
Frame rate : 30.000 fps
Color space : YUV
Chroma subsampling : 4:2:0
Bit depth : 8 bits
Scan type : Progressive
Bits/(Pixel*Frame) : 0.086
Stream size : 1.72 GiB (92%)
Tagged date : UTC 2014-09-12 06:03:14
Audio #2
ID : 2
Format : AAC
Format/Info : Advanced Audio Codec
Format profile : LC
Codec ID : 40
Duration : 1h 42mn
Bit rate mode : Variable
Bit rate : 192 Kbps
Maximum bit rate : 201 Kbps
Channel(s) : 2 channels
Channel positions : Front: L R
Sampling rate : 44.1 KHz
Compression mode : Lossy
Stream size : 141 MiB (7%)
Title : IsoMedia File Produced by Google, 5-11-2011
Encoded date : UTC 2014-09-12 06:01:38
Tagged date : UTC 2014-09-12 06:03:14



Релиз от:
   
Торрент: Зарегистрирован [Сентябрь 24, 2014, 8:58 pm]
Телевидение Скачать торрент Магнет ссылка Смотреть онлайн
Скачать торрент
[ Размер 19.24 КБ / Просмотров 20 ]
Статус:
Проверен
---
.torrent скачан: 127 раз
Приватный: Нет (DHT включён)
Размер: 1.86 ГБ (1 993 977 834)
   
Аватара пользователя
Denny
 
Раздал: 7.49 ТБ
Скачал: 807.97 ГБ
Ратио: 1007.499
Сообщения: 1934
Зарегистрирован: Ноябрь 19, 2012, 10:49 pm
Откуда: Россия

Флаг страны: Russia

Вернуться в Телевидение



Кто сейчас на конференции

Сейчас эту тему просматривают: нет зарегистрированных пользователей и гости: 1

Ресурс не содержит никакой другой информации, кроме описаний отдельных файлов или их групп, имеющихся у некоторых пользователей данного ресурса. Подтверждением наличия данных файлов у пользователя может иногда являться специальный набор значений, представляющих собой результаты применения односторонних хеш-функций к этим файлам или их группам. Данные наборы значений объединяются пользователями в единое целое и могут быть выложены ими вместе с описаниями имеющихся у них файлов. Администрация данного ресурса не имеет физической возможности убедиться, что описания файлов, выложенные нашими пользователями, равно как и созданные ими наборы хешей от файлов, соответствуют реальным файлам имеющимся у пользователей, а не созданы каким-либо иным способом.
cron
Яндекс.Метрика