Гоморра / Gomorra [S01] (2014) HDTVRip от MediaClub | Первый канал

Отечественные и зарубежные сериалы
 Статистика раздачи 
Размер: 6.87 ГБ   |  Зарегистрирован: Октябрь 7, 2014, 5:38 pm   |   .torrent скачан: 303 раз
Сидеров: 425  [ 0 байт/сек ]   Личеров: 44  [ 0 байт/сек ]  

Гоморра / Gomorra [S01] (2014) HDTVRip от MediaClub | Первый канал

Сообщение Denny » Октябрь 7, 2014, 5:38 pm



Информация о фильме
Название: Гоморра
Оригинальное название: Gomorra
Год выхода: 2014
Жанр: Криминал, драма, мафия
Режиссер: Стефано Соллима, Клаудио Купеллини, Франческа Коменчини
В ролях: Марко Д’Аморе, Фортунато Черлино, Мария Пиа Кальцоне, Сальваторе Эспозито, Марко Палветти, Доменико Бальзамо, Массимильяно Росси, Энзо Сачеттино, Элена Стараче, Антонио Мило

О фильме: Сериал "Гоморра" повествует об итальянской мафиозной корпорации несколько веков державшей в страхе весь Неаполь и в какой-то мере контролирующая его до сих пор. Сейчас все еще не оконченна война общества против бандитов и коррумпированных властей и мафиозные разборки здесь не хуже, чем на Сицилии.

Выпущено: Италия, Германия
Студия: Cattleya, Fandango, Sky
Продолжительность: 12 х ~ 00:55:00
Перевод: Профессиональный многоголосый

Файл
Кодек: XviD
Качество: HDTVRip
Видео: 1500 Кбит/с, 720x384
Звук:
Аудио: Русский (AC3, 2 ch, 192 Кбит/с) / Профессиональный многоголосый (Первый канал)

Общее
Полное имя : Gomorra.S01E01.HDTVRip.Rus.MediaClub.avi
Формат : AVI
Формат/Информация : Audio Video Interleave
Размер файла : 626 Мбайт
Продолжительность : 51 м.
Общий поток : 1702 Кбит/сек
Название фильма : Gomorra - Episode 1
Режиссёр : MediaClub
Программа кодирования : VirtualDubMod 1.5.10.2 (build 2540/release)

Видео
Идентификатор : 0
Формат : MPEG-4 Visual
Профиль формата : Advanced Simple@L5
Параметр BVOP формата : 2
Параметр QPel формата : Нет
Параметр GMC формата : Без точки перехода
Параметр матрицы формата : Default (MPEG)
Идентификатор кодека : XVID
Идентификатор кодека/Подсказка : XviD
Продолжительность : 51 м.
Битрейт : 1500 Кбит/сек
Ширина : 720 пикселей
Высота : 384 пикселя
Соотношение сторон : 1,85:1
Частота кадров : 25,000 кадров/сек
Цветовое пространство : YUV
Субдискретизация насыщенности : 4:2:0
Битовая глубина : 8 бит
Тип развёртки : Прогрессивная
Метод сжатия : С потерями
Бит/(Пиксели*Кадры) : 0.217
Размер потока : 552 Мбайт (88%)
Библиотека кодирования : XviD 1.2.1 (UTC 2008-12-04)

Аудио
Идентификатор : 1
Формат : AC-3
Формат/Информация : Audio Coding 3
Расширение режима : CM (complete main)
Параметр Endianness формата : Big
Идентификатор кодека : 2000
Продолжительность : 51 м.
Вид битрейта : Постоянный
Битрейт : 192 Кбит/сек
Каналы : 2 канала
Расположение каналов : Front: L R
Частота : 48,0 КГц
Битовая глубина : 16 бит
Метод сжатия : С потерями
Размер потока : 70,6 Мбайт (11%)
Выравнивание : Разделение по промежуткам
Продолжительность промежутка : 40 мс. (1,00 видеокадр)
Время предзагрузки промежутка : 500 мс.






Релиз от:
   
Торрент: Зарегистрирован [Октябрь 7, 2014, 5:38 pm]
Сериалы Скачать торрент Магнет ссылка Смотреть онлайн
Скачать торрент
[ Размер 10.77 КБ / Просмотров 5 ]
Статус:
Проверен
---
.torrent скачан: 303 раз
Приватный: Нет (DHT включён)
Размер: 6.87 ГБ (7 379 900 416)
   
Аватара пользователя
Denny
 
Раздал: 7.49 ТБ
Скачал: 807.97 ГБ
Ратио: 1007.499
Сообщения: 1934
Зарегистрирован: Ноябрь 19, 2012, 10:49 pm
Откуда: Россия

Флаг страны: Russia

  • Похожие торренты
    Ответы
    Просмотры
    Последнее сообщение

Вернуться в Сериалы



Кто сейчас на конференции

Сейчас эту тему просматривают: нет зарегистрированных пользователей и гости: 1

Ресурс не содержит никакой другой информации, кроме описаний отдельных файлов или их групп, имеющихся у некоторых пользователей данного ресурса. Подтверждением наличия данных файлов у пользователя может иногда являться специальный набор значений, представляющих собой результаты применения односторонних хеш-функций к этим файлам или их группам. Данные наборы значений объединяются пользователями в единое целое и могут быть выложены ими вместе с описаниями имеющихся у них файлов. Администрация данного ресурса не имеет физической возможности убедиться, что описания файлов, выложенные нашими пользователями, равно как и созданные ими наборы хешей от файлов, соответствуют реальным файлам имеющимся у пользователей, а не созданы каким-либо иным способом.
cron
Яндекс.Метрика